  0
SECTION
  2
HEADER
  9
$ACADVER
  1
AC1009
  9
$INSBASE
 10
0.0
 20
0.0
 30
0.0
  9
$EXTMIN
 10
196.2854015970199
 20
54.622513572478852
 30
-0.0015258207003583
  9
$EXTMAX
 10
219.83734205346241
 20
218.4719244282133
 30
0.0000000349246037
  9
$LIMMIN
 10
0.0
 20
0.0
  9
$LIMMAX
 10
420.0
 20
297.0
  9
$ORTHOMODE
 70
     1
  9
$REGENMODE
 70
     1
  9
$FILLMODE
 70
     1
  9
$QTEXTMODE
 70
     0
  9
$MIRRTEXT
 70
     0
  9
$DRAGMODE
 70
     2
  9
$LTSCALE
 40
1.0
  9
$OSMODE
 70
  3071
  9
$ATTMODE
 70
     1
  9
$TEXTSIZE
 40
2.5
  9
$TRACEWID
 40
1.0
  9
$TEXTSTYLE
  7
STANDARD
  9
$CLAYER
  8
标注
  9
$CELTYPE
  6
BYLAYER
  9
$CECOLOR
 62
   256
  9
$DIMSCALE
 40
1.0
  9
$DIMASZ
 40
0.65
  9
$DIMEXO
 40
0.88
  9
$DIMDLI
 40
0.015
  9
$DIMRND
 40
0.0
  9
$DIMDLE
 40
0.0
  9
$DIMEXE
 40
0.32
  9
$DIMTP
 40
0.0
  9
$DIMTM
 40
0.0
  9
$DIMTXT
 40
0.65
  9
$DIMCEN
 40
0.09
  9
$DIMTSZ
 40
0.0
  9
$DIMTOL
 70
     0
  9
$DIMLIM
 70
     0
  9
$DIMTIH
 70
     0
  9
$DIMTOH
 70
     0
  9
$DIMSE1
 70
     0
  9
$DIMSE2
 70
     0
  9
$DIMTAD
 70
     0
  9
$DIMZIN
 70
     8
  9
$DIMBLK
  1

  9
$DIMASO
 70
     1
  9
$DIMSHO
 70
     1
  9
$DIMPOST
  1

  9
$DIMAPOST
  1
"
  9
$DIMALT
 70
     0
  9
$DIMALTD
 70
     1
  9
$DIMALTF
 40
0.03937
  9
$DIMLFAC
 40
1.0
  9
$DIMTOFL
 70
     1
  9
$DIMTVP
 40
0.0
  9
$DIMTIX
 70
     0
  9
$DIMSOXD
 70
     0
  9
$DIMSAH
 70
     0
  9
$DIMBLK1
  1

  9
$DIMBLK2
  1

  9
$DIMSTYLE
  2
副本STANDARD
  9
$DIMCLRD
 70
   256
  9
$DIMCLRE
 70
   256
  9
$DIMCLRT
 70
   256
  9
$DIMTFAC
 40
1.0
  9
$DIMGAP
 40
0.2
  9
$LUNITS
 70
     2
  9
$LUPREC
 70
     2
  9
$SKETCHINC
 40
1.0
  9
$FILLETRAD
 40
0.0
  9
$AUNITS
 70
     0
  9
$AUPREC
 70
     0
  9
$MENU
  1
.
  9
$ELEVATION
 40
0.0
  9
$PELEVATION
 40
0.0
  9
$THICKNESS
 40
0.0
  9
$LIMCHECK
 70
     0
  9
$BLIPMODE
 70
     0
  9
$CHAMFERA
 40
0.0
  9
$CHAMFERB
 40
0.0
  9
$SKPOLY
 70
     0
  9
$TDCREATE
 40
2455855.6287827431
  9
$TDUPDATE
 40
2457458.3861640282
  9
$TDINDWG
 40
0.0405847454
  9
$TDUSRTIMER
 40
0.040584213
  9
$USRTIMER
 70
     1
  9
$ANGBASE
 50
0.0
  9
$ANGDIR
 70
     0
  9
$PDMODE
 70
     0
  9
$PDSIZE
 40
0.0
  9
$PLINEWID
 40
0.0
  9
$COORDS
 70
     0
  9
$SPLFRAME
 70
     0
  9
$SPLINETYPE
 70
     6
  9
$SPLINESEGS
 70
     8
  9
$ATTDIA
 70
     1
  9
$ATTREQ
 70
     1
  9
$HANDLING
 70
     1
  9
$HANDSEED
  5
2F68
  9
$SURFTAB1
 70
     6
  9
$SURFTAB2
 70
     6
  9
$SURFTYPE
 70
     6
  9
$SURFU
 70
     6
  9
$SURFV
 70
     6
  9
$UCSNAME
  2

  9
$UCSORG
 10
0.0
 20
0.0
 30
0.0
  9
$UCSXDIR
 10
1.0
 20
0.0
 30
0.0
  9
$UCSYDIR
 10
0.0
 20
1.0
 30
0.0
  9
$PUCSNAME
  2

  9
$PUCSORG
 10
0.0
 20
0.0
 30
0.0
  9
$PUCSXDIR
 10
1.0
 20
0.0
 30
0.0
  9
$PUCSYDIR
 10
0.0
 20
1.0
 30
0.0
  9
$USERI1
 70
     0
  9
$USERI2
 70
     0
  9
$USERI3
 70
     0
  9
$USERI4
 70
     0
  9
$USERI5
 70
     0
  9
$USERR1
 40
0.0
  9
$USERR2
 40
0.0
  9
$USERR3
 40
0.0
  9
$USERR4
 40
0.0
  9
$USERR5
 40
2.5
  9
$WORLDVIEW
 70
     1
  9
$SHADEDGE
 70
     3
  9
$SHADEDIF
 70
    70
  9
$TILEMODE
 70
     1
  9
$MAXACTVP
 70
    64
  9
$PLIMCHECK
 70
     0
  9
$PEXTMIN
 10
1.0000000000000000E+020
 20
1.0000000000000000E+020
 30
1.0000000000000000E+020
  9
$PEXTMAX
 10
-1.0000000000000000E+020
 20
-1.0000000000000000E+020
 30
-1.0000000000000000E+020
  9
$PLIMMIN
 10
0.0
 20
0.0
  9
$PLIMMAX
 10
420.0
 20
297.0
  9
$UNITMODE
 70
     0
  9
$VISRETAIN
 70
     1
  9
$PLINEGEN
 70
     0
  9
$PSLTSCALE
 70
     1
  0
ENDSEC
  0
SECTION
  2
TABLES
  0
TABLE
  2
VPORT
 70
     1
  0
VPORT
  2
*ACTIVE
 70
     0
 10
0.0
 20
0.0
 11
1.0
 21
1.0
 12
197.3120101219541
 22
145.59217198245099
 13
0.0
 23
0.0
 14
10.0
 24
10.0
 15
10.0
 25
10.0
 16
0.0
 26
0.0
 36
1.0
 17
0.0
 27
0.0
 37
0.0
 40
171.3051226274012
 41
1.5072083879423319
 42
50.0
 43
0.0
 44
0.0
 50
0.0
 51
0.0
 71
     0
 72
  1000
 73
     1
 74
     3
 75
     0
 76
     0
 77
     0
 78
     0
  0
ENDTAB
  0
TABLE
  2
LTYPE
 70
    20
  0
LTYPE
  2
CONTINUOUS
 70
     0
  3
Solid line
 72
    65
 73
     0
 40
0.0
  0
LTYPE
  2
CENTER2
 70
     0
  3
Center (.5x) ___ _ ___ _ ___ _ ___ _ ___ _ ___
 72
    65
 73
     4
 40
28.574999999999999
 49
19.050000000000001
 49
-3.174999999999998
 49
3.174999999999998
 49
-3.174999999999998
  0
LTYPE
  2
HIDDEN2
 70
     0
  3
Hidden (.5x) _ _ _ _ _ _ _ _ _ _ _ _ _ _ _ _ _
 72
    65
 73
     2
 40
4.7624999999999984
 49
3.174999999999998
 49
-1.587499999999999
  0
LTYPE
  2
HIDDEN
 70
     0
  3
Hidden __ __ __ __ __ __ __ __ __ __ __ __ __ _
 72
    65
 73
     2
 40
9.5249999999999986
 49
6.349999999999997
 49
-3.174999999999998
  0
LTYPE
  2
PHANTOM2
 70
     0
  3
Phantom (.5x) ___ _ _ ___ _ _ ___ _ _ ___ _ _
 72
    65
 73
     6
 40
31.75
 49
15.875
 49
-3.174999999999998
 49
3.174999999999998
 49
-3.174999999999998
 49
3.174999999999998
 49
-3.174999999999998
  0
LTYPE
  2
CENTER
 70
     0
  3
Center ____ _ ____ _ ____ _ ____ _ ____ _ ____
 72
    65
 73
     4
 40
50.799999999999997
 49
31.75
 49
-6.349999999999997
 49
6.349999999999997
 49
-6.349999999999997
  0
LTYPE
  2
AM_ISO02W050
 70
     0
  3
__ __ __ __ __ __ __ __ __ __ __ __ __ __ __
 72
    65
 73
     2
 40
7.5
 49
6.0
 49
-1.5
  0
LTYPE
  2
AM_ISO08W050
 70
     0
  3
____ . ____ . ____ . ____ . ____ . ____ . ____
 72
    65
 73
     4
 40
18.0
 49
12.0
 49
-1.5
 49
3.0
 49
-1.5
  0
LTYPE
  2
AM_ISO09W050
 70
     0
  3
_____ . . _____ . . _____ . . ____ .. ____
 72
    65
 73
     6
 40
22.5
 49
12.0
 49
-1.5
 49
3.0
 49
-1.5
 49
3.0
 49
-1.5
  0
LTYPE
  2
AMCONSTR
 70
     0
  3
_______________________
 72
    65
 73
     2
 40
9999.0
 49
9999.0
 49
0.0
  0
LTYPE
  2
AM_ISO08W050X2
 70
     0
  3
__ . __ . __ . __ . __ . __
 72
    65
 73
     4
 40
9.0
 49
6.0
 49
-0.75
 49
1.5
 49
-0.75
  0
LTYPE
  2
AM_ISO02W050X2
 70
     0
  3
 _ _ _ _ _ _ _ _ _ _ _ _
 72
    65
 73
     2
 40
3.75
 49
3.0
 49
-0.75
  0
LTYPE
  2
AMZIGZAG
 70
     0
  3
/\/-/\/-/\/-/\/-/\/-/\/
 72
    65
 73
     2
 40
11.0001
 49
0.0001
 49
-11.0
  0
LTYPE
  2
ACISOWELD
 70
     0
  3
_ _ _ _ _
 72
    65
 73
     2
 40
2.0
 49
2.0
 49
-1.0
  0
LTYPE
  2
ACISOTGB
 70
     0
  3
__ . . __ . .
 72
    65
 73
     6
 40
9.0
 49
4.0
 49
-1.0
 49
1.0
 49
-1.0
 49
1.0
 49
-1.0
  0
LTYPE
  2
ACISOTGL
 70
     0
  3
_ _ _ _ _
 72
    65
 73
     2
 40
3.0
 49
2.0
 49
-1.0
  0
LTYPE
  2
AMZIGZAG2
 70
     0
  3
/\/-/\/-/\/-/\/-/\/-/\/
 72
    65
 73
     2
 40
0.4401
 49
0.0001
 49
-0.4400000000000003
  0
LTYPE
  2
ACANSTGB
 70
     0
  3
__ . . __ . .
 72
    65
 73
     6
 40
0.35433070866
 49
0.15748031496
 49
-0.03937007874
 49
0.03937007874
 49
-0.03937007874
 49
0.03937007874
 49
-0.03937007874
  0
LTYPE
  2
ACANSTGL
 70
     0
  3
_ _ _ _ _
 72
    65
 73
     2
 40
0.11811023622
 49
0.07874015748
 49
-0.03937007874
  0
ENDTAB
  0
TABLE
  2
LAYER
 70
     7
  0
LAYER
  2
0
 70
     0
 62
     7
  6
CONTINUOUS
  0
LAYER
  2
标注
 70
     0
 62
    80
  6
CONTINUOUS
  0
LAYER
  2
中心线
 70
     0
 62
     1
  6
CENTER2
  0
LAYER
  2
虚线
 70
     0
 62
     4
  6
HIDDEN2
  0
LAYER
  2
DEFPOINTS
 70
     0
 62
     7
  6
CONTINUOUS
  0
LAYER
  2
截面层
 70
     0
 62
     6
  6
CONTINUOUS
  0
LAYER
  2
粗实线
 70
     0
 62
     7
  6
CONTINUOUS
  0
ENDTAB
  0
TABLE
  2
STYLE
 70
     9
  0
STYLE
  2
STANDARD
 70
     0
 40
0.0
 41
1.0
 50
0.0
 71
     0
 42
2.5
  3
txt
  4

  0
STYLE
  2
ANNOTATIVE
 70
     0
 40
0.0
 41
1.0
 50
0.0
 71
     0
 42
0.2
  3
txt
  4

  0
STYLE
  2

 70
     1
 40
0.0
 41
1.0
 50
0.0
 71
     0
 42
2.5
  3
genltshp.shx
  4

  0
STYLE
  2
ACISOTS
 70
     0
 40
1.0
 41
1.0
 50
0.0
 71
     0
 42
2.5
  3
isocp.shx
  4
gbcbig.shx
  0
STYLE
  2
ACISOGDT
 70
     0
 40
0.0
 41
1.0
 50
0.0
 71
     0
 42
2.5
  3
amgdt.shx
  4

  0
STYLE
  2
ACANSGDT
 70
     0
 40
0.0
 41
1.0
 50
0.0
 71
     0
 42
0.2
  3
amgdt.shx
  4

  0
STYLE
  2
ACANSTS
 70
     0
 40
1.0
 41
1.0
 50
0.0
 71
     0
 42
2.5
  3
romans.shx
  4
gbcbig.shx
  0
ENDTAB
  0
TABLE
  2
VIEW
 70
     0
  0
ENDTAB
  0
TABLE
  2
UCS
 70
     0
  0
ENDTAB
  0
TABLE
  2
APPID
 70
    21
  0
APPID
  2
ACAD
 70
     0
  0
APPID
  2
ACADANNOTATIVE
 70
     0
  0
APPID
  2
ACAECLAYERSTANDARD
 70
     0
  0
APPID
  2
ACAD_DSTYLE_DIMEXT_LENGTH
 70
     0
  0
APPID
  2
ACAD_DSTYLE_DIMEXT_ENABLED
 70
     0
  0
APPID
  2
ACAD_DSTYLE_DIMJOGGED_JOGA
 70
     0
  0
APPID
  2
ACAD_DSTYLE_DIMARC_LENGTH_
 70
     0
  0
APPID
  2
MCAD_NO_VIS
 70
     0
  0
APPID
  2
ACAD_TEMP_GRAPHIC
 70
     0
  0
APPID
  2
AD_DRAW
 70
     0
  0
APPID
  2
ACATTRIBSERVICES
 70
     0
  0
APPID
  2
DESIGNERASSEMBLIES
 70
     0
  0
APPID
  2
ACADM_DIM_EDIT
 70
     0
  0
APPID
  2
AMDT_DM_ADJ
 70
     0
  0
APPID
  2
ACAD_DSTYLE_DIMJAG
 70
     0
  0
APPID
  2
ACAD_DSTYLE_DIMBREAK
 70
     0
  0
APPID
  2
ACAD_DSTYLE_DIMTALN
 70
     0
  0
APPID
  2
GENIUS_GENODEF_13
 70
     0
  0
APPID
  2
GENIUS_GENOBJ-N-FIL_13
 70
     0
  0
APPID
  2
ACAD_PSEXT
 70
     0
  0
APPID
  2
ACAD_MLEADERVER
 70
     0
  0
ENDTAB
  0
TABLE
  2
DIMSTYLE
 70
    24
  0
DIMSTYLE
  2
STANDARD
 70
     0
  3

  4

  5

  6

  7

 40
1.0
 41
0.18
 42
0.0625
 43
0.38
 44
0.18
 45
0.0
 46
0.0
 47
0.0
 48
0.0
140
0.18
141
0.09
142
0.0
143
25.399999999999999
144
1.0
145
0.0
146
1.0
147
0.09
 71
     0
 72
     0
 73
     1
 74
     1
 75
     0
 76
     0
 77
     0
 78
     0
170
     0
171
     2
172
     0
173
     0
174
     0
175
     0
176
     0
177
     0
178
     0
  0
DIMSTYLE
  2
ANNOTATIVE
 70
     0
  3

  4

  5

  6

  7

 40
1.0
 41
0.18
 42
0.0625
 43
0.38
 44
0.18
 45
0.0
 46
0.0
 47
0.0
 48
0.0
140
0.18
141
0.09
142
0.0
143
25.399999999999999
144
1.0
145
0.0
146
1.0
147
0.09
 71
     0
 72
     0
 73
     1
 74
     1
 75
     0
 76
     0
 77
     0
 78
     0
170
     0
171
     2
172
     0
173
     0
174
     0
175
     0
176
     0
177
     0
178
     0
  0
DIMSTYLE
  2
ISO-25
 70
     0
  3

  4

  5

  6

  7

 40
1.0
 41
2.5
 42
0.625
 43
3.75
 44
1.25
 45
0.0
 46
0.0
 47
0.0
 48
0.0
140
2.5
141
2.5
142
0.0
143
0.03937007874016
144
1.0
145
0.0
146
1.0
147
0.625
 71
     0
 72
     0
 73
     0
 74
     0
 75
     0
 76
     0
 77
     1
 78
     8
170
     0
171
     3
172
     1
173
     0
174
     0
175
     0
176
     0
177
     0
178
     0
  0
DIMSTYLE
  2
副本STANDARD
 70
     0
  3

  4
"
  5

  6

  7

 40
1.0
 41
0.65
 42
0.88
 43
0.015
 44
0.32
 45
0.0
 46
0.0
 47
0.0
 48
0.0
140
0.65
141
0.09
142
0.0
143
0.03937
144
1.0
145
0.0
146
1.0
147
0.2
 71
     0
 72
     0
 73
     0
 74
     0
 75
     0
 76
     0
 77
     0
 78
     8
170
     0
171
     1
172
     1
173
     0
174
     0
175
     0
176
   256
177
   256
178
   256
  0
DIMSTYLE
  2
AM_ISO
 70
     0
  3

  4
"
  5

  6

  7

 40
1.0
 41
3.5
 42
1.0
 43
10.0
 44
1.0
 45
0.0
 46
0.0
 47
0.1
 48
0.1
140
3.5
141
0.0
142
0.0
143
0.0393701
144
1.0
145
0.0
146
0.71
147
1.5
 71
     0
 72
     0
 73
     0
 74
     0
 75
     0
 76
     0
 77
     1
 78
     8
170
     0
171
     2
172
     1
173
     0
174
     0
175
     0
176
   256
177
   256
178
     2
  0
DIMSTYLE
  2
AM_ISO$3
 70
     0
  3

  4
"
  5

  6

  7

 40
1.0
 41
3.5
 42
1.0
 43
10.0
 44
1.0
 45
0.0
 46
0.0
 47
0.1
 48
0.1
140
3.5
141
0.0
142
0.0
143
0.0393701
144
1.0
145
0.0
146
0.71
147
1.5
 71
     0
 72
     0
 73
     0
 74
     1
 75
     0
 76
     0
 77
     1
 78
     8
170
     0
171
     2
172
     0
173
     0
174
     0
175
     0
176
   256
177
   256
178
     2
  0
DIMSTYLE
  2
AM_ISO$4
 70
     0
  3

  4
"
  5

  6

  7

 40
1.0
 41
3.5
 42
1.0
 43
10.0
 44
1.0
 45
0.0
 46
0.0
 47
0.1
 48
0.1
140
3.5
141
0.0
142
0.0
143
0.0393701
144
1.0
145
0.0
146
0.71
147
1.5
 71
     0
 72
     0
 73
     0
 74
     1
 75
     0
 76
     0
 77
     1
 78
     8
170
     0
171
     2
172
     0
173
     0
174
     0
175
     0
176
   256
177
   256
178
     2
  0
DIMSTYLE
  2
AM_ISO$6
 70
     0
  3

  4
"
  5

  6

  7

 40
1.0
 41
3.5
 42
1.0
 43
10.0
 44
1.0
 45
0.0
 46
0.0
 47
0.1
 48
0.1
140
3.5
141
0.0
142
0.0
143
0.0393701
144
1.0
145
0.0
146
0.71
147
1.5
 71
     0
 72
     0
 73
     0
 74
     0
 75
     0
 76
     0
 77
     0
 78
     8
170
     0
171
     2
172
     1
173
     0
174
     0
175
     0
176
   256
177
   256
178
     2
  0
DIMSTYLE
  2
AM_ISO$7
 70
     0
  3

  4
"
  5

  6

  7

 40
1.0
 41
3.5
 42
1.0
 43
10.0
 44
1.0
 45
0.0
 46
0.0
 47
0.1
 48
0.1
140
3.5
141
0.0
142
0.0
143
0.0393701
144
1.0
145
0.0
146
0.71
147
1.5
 71
     0
 72
     0
 73
     0
 74
     0
 75
     0
 76
     0
 77
     1
 78
     8
170
     0
171
     2
172
     1
173
     0
174
     0
175
     0
176
   256
177
   256
178
     2
  0
DIMSTYLE
  2
AM_ISO$SF
 70
     0
  3

  4
"
  5

  6

  7

 40
1.0
 41
3.5
 42
1.0
 43
10.0
 44
1.0
 45
0.0
 46
0.0
 47
0.1
 48
0.1
140
3.5
141
0.0
142
0.0
143
0.0393701
144
1.0
145
0.0
146
0.71
147
1.5
 71
     0
 72
     0
 73
     0
 74
     0
 75
     1
 76
     1
 77
     1
 78
     8
170
     0
171
     2
172
     1
173
     0
174
     0
175
     0
176
   256
177
   256
178
     2
  0
DIMSTYLE
  2
AM_ISO$SH
 70
     0
  3

  4
"
  5

  6

  7

 40
1.0
 41
3.5
 42
1.0
 43
10.0
 44
1.0
 45
0.0
 46
0.0
 47
0.1
 48
0.1
140
3.5
141
0.0
142
0.0
143
0.0393701
144
2.0
145
0.0
146
0.71
147
1.5
 71
     0
 72
     0
 73
     0
 74
     0
 75
     1
 76
     1
 77
     1
 78
     8
170
     0
171
     2
172
     1
173
     1
174
     0
175
     0
176
   256
177
   256
178
     2
  0
DIMSTYLE
  2
AM_ANSI
 70
     0
  3

  4
mm
  5

  6

  7

 40
1.0
 41
0.12
 42
0.05
 43
0.5
 44
0.1
 45
0.0
 46
0.0
 47
0.1
 48
0.1
140
0.12
141
0.0
142
0.0
143
25.399999999999999
144
1.0
145
0.0
146
0.71
147
0.06
 71
     0
 72
     0
 73
     1
 74
     1
 75
     0
 76
     0
 77
     0
 78
     7
170
     0
171
     2
172
     0
173
     0
174
     0
175
     0
176
   256
177
   256
178
     2
  0
DIMSTYLE
  2
AM_ANSI$3
 70
     0
  3

  4
mm
  5

  6

  7

 40
1.0
 41
0.12
 42
0.05
 43
0.5
 44
0.1
 45
0.0
 46
0.0
 47
0.1
 48
0.1
140
0.12
141
0.0
142
0.0
143
25.399999999999999
144
1.0
145
0.0
146
0.71
147
0.06
 71
     0
 72
     0
 73
     1
 74
     1
 75
     0
 76
     0
 77
     0
 78
     7
170
     0
171
     2
172
     0
173
     0
174
     0
175
     0
176
   256
177
   256
178
     2
  0
DIMSTYLE
  2
AM_ANSI$4
 70
     0
  3

  4
mm
  5

  6

  7

 40
1.0
 41
0.12
 42
0.05
 43
0.5
 44
0.1
 45
0.0
 46
0.0
 47
0.1
 48
0.1
140
0.12
141
0.0
142
0.0
143
25.399999999999999
144
1.0
145
0.0
146
0.71
147
0.06
 71
     0
 72
     0
 73
     1
 74
     1
 75
     0
 76
     0
 77
     0
 78
     7
170
     0
171
     2
172
     0
173
     0
174
     0
175
     0
176
   256
177
   256
178
     2
  0
DIMSTYLE
  2
AM_ANSI$7
 70
     0
  3

  4
mm
  5

  6

  7

 40
1.0
 41
0.12
 42
0.05
 43
0.5
 44
0.1
 45
0.0
 46
0.0
 47
0.1
 48
0.1
140
0.12
141
0.0
142
0.0
143
25.399999999999999
144
1.0
145
0.0
146
0.71
147
0.06
 71
     0
 72
     0
 73
     1
 74
     1
 75
     0
 76
     0
 77
     0
 78
     7
170
     0
171
     2
172
     0
173
     0
174
     0
175
     0
176
   256
177
   256
178
     2
  0
DIMSTYLE
  2
AM_ANSI$SF
 70
     0
  3

  4
mm
  5

  6

  7

 40
1.0
 41
0.12
 42
0.05
 43
0.5
 44
0.1
 45
0.0
 46
0.0
 47
0.1
 48
0.1
140
0.12
141
0.0
142
0.0
143
25.399999999999999
144
1.0
145
0.0
146
0.71
147
0.06
 71
     0
 72
     0
 73
     1
 74
     1
 75
     1
 76
     1
 77
     0
 78
     7
170
     0
171
     2
172
     0
173
     0
174
     0
175
     0
176
   256
177
   256
178
     2
  0
DIMSTYLE
  2
AM_ANSI$SH
 70
     0
  3

  4
mm
  5

  6

  7

 40
1.0
 41
0.12
 42
0.05
 43
0.5
 44
0.1
 45
0.0
 46
0.0
 47
0.1
 48
0.1
140
0.12
141
0.0
142
0.0
143
25.399999999999999
144
1.0
145
0.0
146
0.71
147
0.06
 71
     0
 72
     0
 73
     1
 74
     1
 75
     1
 76
     1
 77
     0
 78
     7
170
     0
171
     2
172
     0
173
     1
174
     0
175
     0
176
   256
177
   256
178
     2
  0
DIMSTYLE
  2
8倍
 70
     0
  3

  4
"
  5

  6

  7

 40
1.0
 41
16.0
 42
7.0
 43
0.38
 44
7.0
 45
0.0
 46
0.0
 47
0.0
 48
0.0
140
16.0
141
2.5
142
0.0
143
0.03937
144
1.0
145
0.0
146
1.0
147
1.0
 71
     0
 72
     0
 73
     0
 74
     0
 75
     0
 76
     0
 77
     0
 78
     8
170
     0
171
     3
172
     1
173
     0
174
     0
175
     0
176
   256
177
   256
178
   256
  0
DIMSTYLE
  2
9倍
 70
     0
  3

  4
"
  5

  6

  7

 40
1.0
 41
18.0
 42
7.0
 43
0.38
 44
7.0
 45
0.0
 46
0.0
 47
0.0
 48
0.0
140
18.0
141
2.5
142
0.0
143
0.03937
144
1.0
145
0.0
146
1.0
147
1.0
 71
     0
 72
     0
 73
     0
 74
     0
 75
     0
 76
     0
 77
     0
 78
     8
170
     0
171
     3
172
     1
173
     0
174
     0
175
     0
176
   256
177
   256
178
   256
  0
DIMSTYLE
  2
5倍
 70
     0
  3

  4

  5

  6

  7

 40
1.0
 41
10.0
 42
25.0
 43
0.38
 44
8.0
 45
0.0
 46
0.0
 47
0.0
 48
0.0
140
10.0
141
0.09
142
0.0
143
25.399999999999999
144
1.0
145
0.0
146
1.0
147
5.0
 71
     0
 72
     0
 73
     0
 74
     0
 75
     0
 76
     0
 77
     0
 78
     8
170
     0
171
     2
172
     1
173
     0
174
     0
175
     0
176
     3
177
     3
178
     3
  0
DIMSTYLE
  2
6倍
 70
     0
  3

  4

  5

  6

  7

 40
1.0
 41
12.0
 42
25.0
 43
0.38
 44
8.0
 45
0.0
 46
0.0
 47
0.0
 48
0.0
140
12.0
141
0.09
142
0.0
143
25.399999999999999
144
1.0
145
0.0
146
1.0
147
5.0
 71
     0
 72
     0
 73
     0
 74
     0
 75
     0
 76
     0
 77
     0
 78
     8
170
     0
171
     2
172
     1
173
     0
174
     0
175
     0
176
     3
177
     3
178
     3
  0
ENDTAB
  0
ENDSEC
  0
SECTION
  2
BLOCKS
  0
BLOCK
  8
0
  2
$MODEL_SPACE
 70
     0
 10
0.0
 20
0.0
 30
0.0
  3
$MODEL_SPACE
  1

  0
ENDBLK
  5
27BD
  8
0
  0
BLOCK
 67
     1
  8
0
  2
$PAPER_SPACE
 70
     0
 10
0.0
 20
0.0
 30
0.0
  3
$PAPER_SPACE
  1

  0
ENDBLK
  5
27B9
 67
     1
  8
0
  0
BLOCK
  8
0
  2
*D2
 70
     1
 10
0.0
 20
0.0
 30
0.0
  3
*D2
  1

  0
LINE
  5
2F
  8
标注
 10
407.02783051578518
 20
178.1497720044058
 30
0.0
 11
416.30485372233409
 21
178.1497720044058
 31
0.0
  0
LINE
  5
30
  8
标注
 10
407.02783051578518
 20
157.40961452408811
 30
0.0
 11
416.30485372233409
 21
157.40961452408811
 31
0.0
  0
LINE
  5
31
  8
标注
 10
415.98485372233381
 20
177.49977200440591
 30
0.0
 11
415.98485372233381
 21
169.98385993091361
 31
0.0
  0
LINE
  5
32
  8
标注
 10
415.98485372233381
 20
158.05961452408809
 30
0.0
 11
415.98485372233381
 21
165.57552659758031
 31
0.0
  0
SOLID
  5
33
  8
标注
 10
415.87652038900058
 20
177.49977200440591
 30
0.0
 11
416.09318705566699
 21
177.49977200440591
 31
0.0
 12
415.98485372233381
 22
178.1497720044058
 32
0.0
 13
415.98485372233381
 23
178.1497720044058
 33
0.0
  0
SOLID
  5
34
  8
标注
 10
415.87652038900058
 20
158.05961452408809
 30
0.0
 11
416.09318705566699
 21
158.05961452408809
 31
0.0
 12
415.98485372233381
 22
157.40961452408811
 32
0.0
 13
415.98485372233381
 23
157.40961452408811
 33
0.0
  0
INSERT
  5
35
  8
标注
  2
*U3
 10
0.0
 20
0.0
 30
0.0
  0
POINT
  5
36
  8
DEFPOINTS
 62
     0
 10
406.14783051578519
 20
178.1497720044058
 30
0.0
  0
POINT
  5
37
  8
DEFPOINTS
 62
     0
 10
406.14783051578519
 20
157.40961452408811
 30
0.0
  0
POINT
  5
38
  8
DEFPOINTS
 62
     0
 10
415.98485372233381
 20
157.40961452408811
 30
0.0
  0
ENDBLK
  5
39
  8
0
  0
BLOCK
  8
0
  2
*U3
 70
     1
 10
0.0
 20
0.0
 30
0.0
  3
*U3
  1

  0
TEXT
  5
19DF
  8
标注
 10
416.30985372233391
 20
165.7755265975803
 30
0.0
 40
0.65
  1
20 3/4"
 50
90.0
  0
ENDBLK
  5
19E1
  8
0
  0
BLOCK
  8
0
  2
*D4
 70
     1
 10
0.0
 20
0.0
 30
0.0
  3
*D4
  1

  0
LINE
  5
3C
  8
标注
 10
378.19696437405321
 20
195.18993721002869
 30
0.0
 11
376.06506228135322
 21
195.18993721002869
 31
0.0
  0
LINE
  5
3D
  8
标注
 10
383.74442719235321
 20
187.7214332730185
 30
0.0
 11
376.06506228135322
 21
187.7214332730185
 31
0.0
  0
LINE
  5
3E
  8
标注
 10
376.3850622813531
 20
194.53993721002871
 30
0.0
 11
376.3850622813531
 21
193.2806852415236
 31
0.0
  0
LINE
  5
3F
  8
标注
 10
376.3850622813531
 20
188.3714332730184
 30
0.0
 11
376.3850622813531
 21
189.63068524152359
 31
0.0
  0
SOLID
  5
40
  8
标注
 10
376.27672894801981
 20
194.53993721002871
 30
0.0
 11
376.49339561468651
 21
194.53993721002871
 31
0.0
 12
376.3850622813531
 22
195.18993721002869
 32
0.0
 13
376.3850622813531
 23
195.18993721002869
 33
0.0
  0
SOLID
  5
41
  8
标注
 10
376.27672894801981
 20
188.3714332730184
 30
0.0
 11
376.49339561468651
 21
188.3714332730184
 31
0.0
 12
376.3850622813531
 22
187.7214332730185
 32
0.0
 13
376.3850622813531
 23
187.7214332730185
 33
0.0
  0
INSERT
  5
42
  8
标注
  2
*U5
 10
0.0
 20
0.0
 30
0.0
  0
POINT
  5
43
  8
DEFPOINTS
 62
     0
 10
379.0769643740532
 20
195.18993721002869
 30
0.0
  0
POINT
  5
44
  8
DEFPOINTS
 62
     0
 10
384.62442719235321
 20
187.7214332730185
 30
0.0
  0
POINT
  5
45
  8
DEFPOINTS
 62
     0
 10
376.3850622813531
 20
187.7214332730185
 30
0.0
  0
ENDBLK
  5
46
  8
0
  0
BLOCK
  8
0
  2
*U5
 70
     1
 10
0.0
 20
0.0
 30
0.0
  3
*U5
  1

  0
TEXT
  5
19E3
  8
标注
 10
376.71006228135309
 20
189.8306852415237
 30
0.0
 40
0.65
  1
7 1/2"
 50
90.0
  0
ENDBLK
  5
19E5
  8
0
  0
BLOCK
  8
0
  2
*D6
 70
     1
 10
0.0
 20
0.0
 30
0.0
  3
*D6
  1

  0
LINE
  5
49
  8
标注
 10
403.09082264172292
 20
177.1497720044058
 30
0.0
 11
413.86689288614173
 21
177.1497720044058
 31
0.0
  0
LINE
  5
4A
  8
标注
 10
403.09082264169598
 20
158.40961452409101
 30
0.0
 11
413.86689288614173
 21
158.40961452409101
 31
0.0
  0
LINE
  5
4B
  8
标注
 10
413.54689288614162
 20
176.49977200440591
 30
0.0
 11
413.54689288614162
 21
169.92969326424841
 31
0.0
  0
LINE
  5
4C
  8
标注
 10
413.54689288614162
 20
159.05961452409099
 30
0.0
 11
413.54689288614162
 21
165.6296932642484
 31
0.0
  0
SOLID
  5
4D
  8
标注
 10
413.4385595528081
 20
176.49977200440591
 30
0.0
 11
413.65522621947508
 21
176.49977200440591
 31
0.0
 12
413.54689288614162
 22
177.1497720044058
 32
0.0
 13
413.54689288614162
 23
177.1497720044058
 33
0.0
  0
SOLID
  5
4E
  8
标注
 10
413.4385595528081
 20
159.05961452409099
 30
0.0
 11
413.65522621947508
 21
159.05961452409099
 31
0.0
 12
413.54689288614162
 22
158.40961452409101
 32
0.0
 13
413.54689288614162
 23
158.40961452409101
 33
0.0
  0
INSERT
  5
4F
  8
标注
  2
*U7
 10
0.0
 20
0.0
 30
0.0
  0
POINT
  5
50
  8
DEFPOINTS
 62
     0
 10
402.21082264172293
 20
177.1497720044058
 30
0.0
  0
POINT
  5
51
  8
DEFPOINTS
 62
     0
 10
402.21082264169598
 20
158.40961452409101
 30
0.0
  0
POINT
  5
52
  8
DEFPOINTS
 62
     0
 10
413.54689288614162
 20
158.40961452409101
 30
0.0
  0
ENDBLK
  5
53
  8
0
  0
BLOCK
  8
0
  2
*U7
 70
     1
 10
0.0
 20
0.0
 30
0.0
  3
*U7
  1

  0
TEXT
  5
19E7
  8
标注
 10
413.87189288614172
 20
165.8296932642485
 30
0.0
 40
0.65
  1
18 3/4"
 50
90.0
  0
ENDBLK
  5
19E9
  8
0
  0
BLOCK
  8
0
  2
*D8
 70
     1
 10
0.0
 20
0.0
 30
0.0
  3
*D8
  1

  0
LINE
  5
56
  8
标注
 10
385.69302736617919
 20
174.9450475949686
 30
0.0
 11
376.02484675796251
 21
174.9450475949686
 31
0.0
  0
LINE
  5
57
  8
标注
 10
385.69302736617919
 20
158.40961452410241
 30
0.0
 11
376.02484675796251
 21
158.40961452410241
 31
0.0
  0
LINE
  5
58
  8
标注
 10
376.34484675796273
 20
174.29504759496859
 30
0.0
 11
376.34484675796273
 21
168.71899772620199
 31
0.0
  0
LINE
  5
59
  8
标注
 10
376.34484675796273
 20
159.0596145241025
 30
0.0
 11
376.34484675796273
 21
164.63566439286879
 31
0.0
  0
SOLID
  5
5A
  8
标注
 10
376.23651342462932
 20
174.29504759496859
 30
0.0
 11
376.45318009129602
 21
174.29504759496859
 31
0.0
 12
376.34484675796273
 22
174.9450475949686
 32
0.0
 13
376.34484675796273
 23
174.9450475949686
 33
0.0
  0
SOLID
  5
5B
  8
标注
 10
376.23651342462932
 20
159.0596145241025
 30
0.0
 11
376.45318009129602
 21
159.0596145241025
 31
0.0
 12
376.34484675796273
 22
158.40961452410241
 32
0.0
 13
376.34484675796273
 23
158.40961452410241
 33
0.0
  0
INSERT
  5
5C
  8
标注
  2
*U9
 10
0.0
 20
0.0
 30
0.0
  0
POINT
  5
5D
  8
DEFPOINTS
 62
     0
 10
386.57302736617919
 20
174.9450475949686
 30
0.0
  0
POINT
  5
5E
  8
DEFPOINTS
 62
     0
 10
386.57302736617919
 20
158.40961452410241
 30
0.0
  0
POINT
  5
5F
  8
DEFPOINTS
 62
     0
 10
376.34484675796273
 20
158.40961452410241
 30
0.0
  0
ENDBLK
  5
60
  8
0
  0
BLOCK
  8
0
  2
*U9
 70
     1
 10
0.0
 20
0.0
 30
0.0
  3
*U9
  1

  0
TEXT
  5
19EB
  8
标注
 10
376.6698467579626
 20
164.83566439286881
 30
0.0
 40
0.65
  1
16 1/2"
 50
90.0
  0
ENDBLK
  5
19ED
  8
0
  0
BLOCK
  8
0
  2
*D10
 70
     1
 10
0.0
 20
0.0
 30
0.0
  3
*D10
  1

  0
LINE
  5
63
  8
标注
 10
382.74027146066732
 20
175.94504759496871
 30
0.0
 11
373.68368584256632
 21
175.94504759496871
 31
0.0
  0
LINE
  5
64
  8
标注
 10
382.74027146066732
 20
157.40961452410471
 30
0.0
 11
373.68368584256632
 21
157.40961452410471
 31
0.0
  0
LINE
  5
65
  8
标注
 10
374.00368584256631
 20
175.29504759496871
 30
0.0
 11
374.00368584256631
 21
168.7189977262033
 31
0.0
  0
LINE
  5
66
  8
标注
 10
374.00368584256631
 20
158.05961452410469
 30
0.0
 11
374.00368584256631
 21
164.63566439287001
 31
0.0
  0
SOLID
  5
67
  8
标注
 10
373.89535250923302
 20
175.29504759496871
 30
0.0
 11
374.11201917589972
 21
175.29504759496871
 31
0.0
 12
374.00368584256631
 22
175.94504759496871
 32
0.0
 13
374.00368584256631
 23
175.94504759496871
 33
0.0
  0
SOLID
  5
68
  8
标注
 10
373.89535250923302
 20
158.05961452410469
 30
0.0
 11
374.11201917589972
 21
158.05961452410469
 31
0.0
 12
374.00368584256631
 22
157.40961452410471
 32
0.0
 13
374.00368584256631
 23
157.40961452410471
 33
0.0
  0
INSERT
  5
69
  8
标注
  2
*U11
 10
0.0
 20
0.0
 30
0.0
  0
POINT
  5
6A
  8
DEFPOINTS
 62
     0
 10
383.62027146066742
 20
175.94504759496871
 30
0.0
  0
POINT
  5
6B
  8
DEFPOINTS
 62
     0
 10
383.62027146066742
 20
157.40961452410471
 30
0.0
  0
POINT
  5
6C
  8
DEFPOINTS
 62
     0
 10
374.00368584256631
 20
157.40961452410471
 30
0.0
  0
ENDBLK
  5
6D
  8
0
  0
BLOCK
  8
0
  2
*U11
 70
     1
 10
0.0
 20
0.0
 30
0.0
  3
*U11
  1

  0
TEXT
  5
19EF
  8
标注
 10
374.32868584256619
 20
164.83566439287
 30
0.0
 40
0.65
  1
18 1/2"
 50
90.0
  0
ENDBLK
  5
19F1
  8
0
  0
BLOCK
  8
0
  2
*D12
 70
     1
 10
0.0
 20
0.0
 30
0.0
  3
*D12
  1

  0
LINE
  5
70
  8
标注
 10
410.08483838980118
 20
166.8996932642485
 30
0.0
 11
410.08483838980118
 21
154.7354891656021
 31
0.0
  0
LINE
  5
71
  8
标注
 10
394.3368068937383
 20
166.8996932642485
 30
0.0
 11
394.3368068937383
 21
154.7354891656021
 31
0.0
  0
LINE
  5
72
  8
标注
 10
409.43483838980131
 20
155.0554891656021
 30
0.0
 11
404.36082264176957
 21
155.0554891656021
 31
0.0
  0
LINE
  5
73
  8
标注
 10
394.98680689373828
 20
155.0554891656021
 30
0.0
 11
400.06082264176968
 21
155.0554891656021
 31
0.0
  0
SOLID
  5
74
  8
标注
 10
409.43483838980131
 20
155.16382249893539
 30
0.0
 11
409.43483838980131
 21
154.94715583226881
 31
0.0
 12
410.08483838980118
 22
155.0554891656021
 32
0.0
 13
410.08483838980118
 23
155.0554891656021
 33
0.0
  0
SOLID
  5
75
  8
标注
 10
394.98680689373828
 20
155.16382249893539
 30
0.0
 11
394.98680689373828
 21
154.94715583226881
 31
0.0
 12
394.3368068937383
 22
155.0554891656021
 32
0.0
 13
394.3368068937383
 23
155.0554891656021
 33
0.0
  0
INSERT
  5
76
  8
标注
  2
*U13
 10
0.0
 20
0.0
 30
0.0
  0
POINT
  5
77
  8
DEFPOINTS
 62
     0
 10
410.08483838980118
 20
167.77969326424841
 30
0.0
  0
POINT
  5
78
  8
DEFPOINTS
 62
     0
 10
394.3368068937383
 20
167.77969326424841
 30
0.0
  0
POINT
  5
79
  8
DEFPOINTS
 62
     0
 10
394.3368068937383
 20
155.0554891656021
 30
0.0
  0
ENDBLK
  5
7A
  8
0
  0
BLOCK
  8
0
  2
*U13
 70
     1
 10
0.0
 20
0.0
 30
0.0
  3
*U13
  1

  0
TEXT
  5
19F3
  8
标注
 10
400.26082264176972
 20
154.73048916560211
 30
0.0
 40
0.65
  1
15 3/4"
  0
ENDBLK
  5
19F5
  8
0
  0
BLOCK
  8
0
  2
*D14
 70
     1
 10
0.0
 20
0.0
 30
0.0
  3
*D14
  1

  0
LINE
  5
7D
  8
标注
 10
393.06909035830529
 20
165.79733105953659
 30
0.0
 11
393.06909035830529
 21
154.73147979388719
 31
0.0
  0
LINE
  5
7E
  8
标注
 10
380.0769643740532
 20
165.79733105953559
 30
0.0
 11
380.0769643740532
 21
154.73147979388719
 31
0.0
  0
LINE
  5
7F
  8
标注
 10
392.4190903583052
 20
155.05147979388721
 30
0.0
 11
387.42302736617921
 21
155.05147979388721
 31
0.0
  0
LINE
  5
80
  8
标注
 10
380.72696437405318
 20
155.05147979388721
 30
0.0
 11
385.72302736617922
 21
155.05147979388721
 31
0.0
  0
SOLID
  5
81
  8
标注
 10
392.4190903583052
 20
155.1598131272205
 30
0.0
 11
392.4190903583052
 21
154.94314646055381
 31
0.0
 12
393.06909035830529
 22
155.05147979388721
 32
0.0
 13
393.06909035830529
 23
155.05147979388721
 33
0.0
  0
SOLID
  5
82
  8
标注
 10
380.72696437405318
 20
155.1598131272205
 30
0.0
 11
380.72696437405318
 21
154.94314646055381
 31
0.0
 12
380.0769643740532
 22
155.05147979388721
 32
0.0
 13
380.0769643740532
 23
155.05147979388721
 33
0.0
  0
INSERT
  5
83
  8
标注
  2
*U15
 10
0.0
 20
0.0
 30
0.0
  0
POINT
  5
84
  8
DEFPOINTS
 62
     0
 10
393.06909035830529
 20
166.67733105953661
 30
0.0
  0
POINT
  5
85
  8
DEFPOINTS
 62
     0
 10
380.0769643740532
 20
166.67733105953559
 30
0.0
  0
POINT
  5
86
  8
DEFPOINTS
 62
     0
 10
380.0769643740532
 20
155.05147979388721
 30
0.0
  0
ENDBLK
  5
87
  8
0
  0
BLOCK
  8
0
  2
*U15
 70
     1
 10
0.0
 20
0.0
 30
0.0
  3
*U15
  1

  0
TEXT
  5
19F7
  8
标注
 10
385.92302736617921
 20
154.72647979388711
 30
0.0
 40
0.65
  1
13"
  0
ENDBLK
  5
19F9
  8
0
  0
BLOCK
  8
0
  2
*D16
 70
     1
 10
0.0
 20
0.0
 30
0.0
  3
*D16
  1

  0
LINE
  5
8A
  8
标注
 10
411.08483838980089
 20
161.46662239810379
 30
0.0
 11
411.08483838980089
 21
152.488081526451
 31
0.0
  0
LINE
  5
8B
  8
标注
 10
379.0769643740532
 20
161.07292161071891
 30
0.0
 11
379.0769643740532
 21
152.488081526451
 31
0.0
  0
LINE
  5
8C
  8
标注
 10
410.43483838980097
 20
152.80808152645099
 30
0.0
 11
396.03923471526042
 21
152.80808152645099
 31
0.0
  0
LINE
  5
8D
  8
标注
 10
379.72696437405318
 20
152.80808152645099
 30
0.0
 11
394.12256804859379
 21
152.80808152645099
 31
0.0
  0
SOLID
  5
8E
  8
标注
 10
410.43483838980097
 20
152.91641485978431
 30
0.0
 11
410.43483838980097
 21
152.69974819311761
 31
0.0
 12
411.08483838980089
 22
152.80808152645099
 32
0.0
 13
411.08483838980089
 23
152.80808152645099
 33
0.0
  0
SOLID
  5
8F
  8
标注
 10
379.72696437405318
 20
152.91641485978431
 30
0.0
 11
379.72696437405318
 21
152.69974819311761
 31
0.0
 12
379.0769643740532
 22
152.80808152645099
 32
0.0
 13
379.0769643740532
 23
152.80808152645099
 33
0.0
  0
INSERT
  5
90
  8
标注
  2
*U17
 10
0.0
 20
0.0
 30
0.0
  0
POINT
  5
91
  8
DEFPOINTS
 62
     0
 10
411.08483838980089
 20
162.34662239810379
 30
0.0
  0
POINT
  5
92
  8
DEFPOINTS
 62
     0
 10
379.0769643740532
 20
161.9529216107189
 30
0.0
  0
POINT
  5
93
  8
DEFPOINTS
 62
     0
 10
379.0769643740532
 20
152.80808152645099
 30
0.0
  0
ENDBLK
  5
94
  8
0
  0
BLOCK
  8
0
  2
*U17
 70
     1
 10
0.0
 20
0.0
 30
0.0
  3
*U17
  1

  0
TEXT
  5
19FB
  8
标注
 10
394.32256804859372
 20
152.48308152645089
 30
0.0
 40
0.65
  1
32"
  0
ENDBLK
  5
19FD
  8
0
  0
BLOCK
  8
0
  2
*D18
 70
     1
 10
0.0
 20
0.0
 30
0.0
  3
*D18
  1

  0
LINE
  5
97
  8
标注
 10
396.46319437076551
 20
160.7984281803391
 30
0.0
 11
395.96536305883137
 21
160.38049997495199
 31
0.0
  0
INSERT
  5
98
  8
标注
  2
*U19
 10
0.0
 20
0.0
 30
0.0
  0
SOLID
  5
99
  8
标注
 10
395.8957083579337
 20
160.4634718602743
 30
0.0
 11
396.0350177597291
 21
160.29752808962971
 31
0.0
 12
395.46753174689741
 22
159.9625717695649
 32
0.0
 13
395.46753174689741
 23
159.9625717695649
 33
0.0
  0
POINT
  5
9A
  8
DEFPOINTS
 62
     0
 10
395.46753174689741
 20
159.9625717695649
 30
0.0
  0
POINT
  5
9B
  8
DEFPOINTS
 62
     0
 10
398.48286373922951
 20
162.49393582399901
 30
0.0
  0
ENDBLK
  5
9C
  8
0
  0
BLOCK
  8
0
  2
*U19
 70
     1
 10
0.0
 20
0.0
 30
0.0
  3
*U19
  1

  0
TEXT
  5
19FF
  8
标注
 10
396.8253373386695
 20
160.6781058183372
 30
0.0
 40
0.65
  1
R3 7/8"
 50
40.013379034839772
  0
ENDBLK
  5
1A01
  8
0
  0
BLOCK
  8
0
  2
*D20
 70
     1
 10
0.0
 20
0.0
 30
0.0
  3
*D20
  1

  0
LINE
  5
9F
  8
标注
 10
382.1220613221904
 20
160.64641144522241
 30
0.0
 11
381.62371341079279
 21
160.2290993806881
 31
0.0
  0
INSERT
  5
A0
  8
标注
  2
*U21
 10
0.0
 20
0.0
 30
0.0
  0
SOLID
  5
A1
  8
标注
 10
381.55416140003717
 20
160.31215736592091
 30
0.0
 11
381.69326542154852
 21
160.1460413954552
 31
0.0
 12
381.12536549939563
 22
159.81178731615381
 32
0.0
 13
381.12536549939563
 23
159.81178731615381
 33
0.0
  0
POINT
  5
A2
  8
DEFPOINTS
 62
     0
 10
381.12536549939563
 20
159.81178731615381
 30
0.0
  0
POINT
  5
A3
  8
DEFPOINTS
 62
     0
 10
383.8419804010166
 20
162.08665623245221
 30
0.0
  0
ENDBLK
  5
A4
  8
0
  0
BLOCK
  8
0
  2
*U21
 70
     1
 10
0.0
 20
0.0
 30
0.0
  3
*U21
  1

  0
TEXT
  5
1A03
  8
标注
 10
382.48405517334891
 20
160.5256412016881
 30
0.0
 40
0.65
  1
R3 1/2"
 50
39.942503704134921
  0
ENDBLK
  5
1A05
  8
0
  0
BLOCK
  8
0
  2
*D22
 70
     1
 10
0.0
 20
0.0
 30
0.0
  3
*D22
  1

  0
LINE
  5
A7
  8
标注
 10
410.08483838980118
 20
166.8996932642485
 30
0.0
 11
410.08483838980118
 21
154.7354891656021
 31
0.0
  0
LINE
  5
A8
  8
标注
 10
411.08483838980089
 20
161.46662239810379
 30
0.0
 11
411.08483838980089
 21
154.7354891656021
 31
0.0
  0
LINE
  5
A9
  8
标注
 10
409.43483838980131
 20
155.0554891656021
 30
0.0
 11
408.78483838980111
 21
155.0554891656021
 31
0.0
  0
LINE
  5
AA
  8
标注
 10
411.73483838980093
 20
155.0554891656021
 30
0.0
 11
412.38483838980102
 21
155.0554891656021
 31
0.0
  0
LINE
  5
AB
  8
标注
 10
410.08483838980118
 20
155.0554891656021
 30
0.0
 11
411.08483838980089
 21
155.0554891656021
 31
0.0
  0
SOLID
  5
AC
  8
标注
 10
409.43483838980131
 20
155.16382249893539
 30
0.0
 11
409.43483838980131
 21
154.94715583226881
 31
0.0
 12
410.08483838980118
 22
155.0554891656021
 32
0.0
 13
410.08483838980118
 23
155.0554891656021
 33
0.0
  0
SOLID
  5
AD
  8
标注
 10
411.73483838980093
 20
155.16382249893539
 30
0.0
 11
411.73483838980093
 21
154.94715583226881
 31
0.0
 12
411.08483838980089
 22
155.0554891656021
 32
0.0
 13
411.08483838980089
 23
155.0554891656021
 33
0.0
  0
INSERT
  5
AE
  8
标注
  2
*U23
 10
0.0
 20
0.0
 30
0.0
  0
POINT
  5
AF
  8
DEFPOINTS
 62
     0
 10
410.08483838980118
 20
167.77969326424841
 30
0.0
  0
POINT
  5
B0
  8
DEFPOINTS
 62
     0
 10
411.08483838980089
 20
162.34662239810379
 30
0.0
  0
POINT
  5
B1
  8
DEFPOINTS
 62
     0
 10
411.08483838980089
 20
155.0554891656021
 30
0.0
  0
ENDBLK
  5
B2
  8
0
  0
BLOCK
  8
0
  2
*U23
 70
     1
 10
0.0
 20
0.0
 30
0.0
  3
*U23
  1

  0
TEXT
  5
1A07
  8
标注
 10
412.58483838980112
 20
154.73048916560211
 30
0.0
 40
0.65
  1
1"
  0
ENDBLK
  5
1A09
  8
0
  0
BLOCK
  8
0
  2
*D24
 70
     1
 10
0.0
 20
0.0
 30
0.0
  3
*D24
  1

  0
LINE
  5
B5
  8
标注
 10
393.06909035830529
 20
167.55733105953661
 30
0.0
 11
393.06909035830529
 21
167.21969326424841
 31
0.0
  0
LINE
  5
B6
  8
标注
 10
394.3368068937383
 20
167.55733105953661
 30
0.0
 11
394.3368068937383
 21
167.21969326424841
 31
0.0
  0
LINE
  5
B7
  8
标注
 10
392.41909035830531
 20
166.8996932642485
 30
0.0
 11
391.76909035830522
 21
166.8996932642485
 31
0.0
  0
LINE
  5
B8
  8
标注
 10
394.98680689373828
 20
166.8996932642485
 30
0.0
 11
395.63680689373831
 21
166.8996932642485
 31
0.0
  0
LINE
  5
B9
  8
标注
 10
393.06909035830529
 20
166.8996932642485
 30
0.0
 11
394.3368068937383
 21
166.8996932642485
 31
0.0
  0
SOLID
  5
BA
  8
标注
 10
392.41909035830531
 20
167.00802659758179
 30
0.0
 11
392.41909035830531
 21
166.79135993091521
 31
0.0
 12
393.06909035830529
 22
166.8996932642485
 32
0.0
 13
393.06909035830529
 23
166.8996932642485
 33
0.0
  0
SOLID
  5
BB
  8
标注
 10
394.98680689373828
 20
167.00802659758179
 30
0.0
 11
394.98680689373828
 21
166.79135993091521
 31
0.0
 12
394.3368068937383
 22
166.8996932642485
 32
0.0
 13
394.3368068937383
 23
166.8996932642485
 33
0.0
  0
INSERT
  5
BC
  8
标注
  2
*U25
 10
0.0
 20
0.0
 30
0.0
  0
POINT
  5
BD
  8
DEFPOINTS
 62
     0
 10
393.06909035830529
 20
166.67733105953661
 30
0.0
  0
POINT
  5
BE
  8
DEFPOINTS
 62
     0
 10
394.3368068937383
 20
166.67733105953661
 30
0.0
  0
POINT
  5
BF
  8
DEFPOINTS
 62
     0
 10
394.3368068937383
 20
166.8996932642485
 30
0.0
  0
ENDBLK
  5
C0
  8
0
  0
BLOCK
  8
0
  2
*U25
 70
     1
 10
0.0
 20
0.0
 30
0.0
  3
*U25
  1

  0
TEXT
  5
1A0B
  8
标注
 10
395.8368068937383
 20
166.5746932642484
 30
0.0
 40
0.65
  1
1 1/4"
  0
ENDBLK
  5
1A0D
  8
0
  0
BLOCK
  8
0
  2
*D26
 70
     1
 10
0.0
 20
0.0
 30
0.0
  3
*D26
  1

  0
LINE
  5
C3
  8
标注
 10
403.97082264172292
 20
177.1497720044058
 30
0.0
 11
413.86689288614173
 21
177.1497720044058
 31
0.0
  0
LINE
  5
C4
  8
标注
 10
407.02783051578518
 20
178.1497720044058
 30
0.0
 11
413.86689288614173
 21
178.1497720044058
 31
0.0
  0
LINE
  5
C5
  8
标注
 10
413.54689288614162
 20
176.49977200440591
 30
0.0
 11
413.54689288614162
 21
175.84977200440591
 31
0.0
  0
LINE
  5
C6
  8
标注
 10
413.54689288614162
 20
178.7997720044059
 30
0.0
 11
413.54689288614162
 21
179.4497720044059
 31
0.0
  0
LINE
  5
C7
  8
标注
 10
413.54689288614162
 20
177.1497720044058
 30
0.0
 11
413.54689288614162
 21
178.1497720044058
 31
0.0
  0
SOLID
  5
C8
  8
标注
 10
413.4385595528081
 20
176.49977200440591
 30
0.0
 11
413.65522621947508
 21
176.49977200440591
 31
0.0
 12
413.54689288614162
 22
177.1497720044058
 32
0.0
 13
413.54689288614162
 23
177.1497720044058
 33
0.0
  0
SOLID
  5
C9
  8
标注
 10
413.4385595528081
 20
178.7997720044059
 30
0.0
 11
413.65522621947508
 21
178.7997720044059
 31
0.0
 12
413.54689288614162
 22
178.1497720044058
 32
0.0
 13
413.54689288614162
 23
178.1497720044058
 33
0.0
  0
INSERT
  5
CA
  8
标注
  2
*U27
 10
0.0
 20
0.0
 30
0.0
  0
POINT
  5
CB
  8
DEFPOINTS
 62
     0
 10
403.09082264172292
 20
177.1497720044058
 30
0.0
  0
POINT
  5
CC
  8
DEFPOINTS
 62
     0
 10
406.14783051578519
 20
178.1497720044058
 30
0.0
  0
POINT
  5
CD
  8
DEFPOINTS
 62
     0
 10
413.54689288614162
 20
178.1497720044058
 30
0.0
  0
ENDBLK
  5
CE
  8
0
  0
BLOCK
  8
0
  2
*U27
 70
     1
 10
0.0
 20
0.0
 30
0.0
  3
*U27
  1

  0
TEXT
  5
1A0F
  8
标注
 10
413.87189288614172
 20
179.6497720044058
 30
0.0
 40
0.65
  1
1"
 50
90.0
  0
ENDBLK
  5
1A11
  8
0
  0
BLOCK
  8
0
  2
*D28
 70
     1
 10
0.0
 20
0.0
 30
0.0
  3
*D28
  1

  0
LINE
  5
D1
  8
标注
 10
384.8130273661792
 20
158.40961452410241
 30
0.0
 11
376.02484675796251
 21
158.40961452410241
 31
0.0
  0
LINE
  5
D2
  8
标注
 10
382.74027146066402
 20
157.40961452410471
 30
0.0
 11
376.02484675796251
 21
157.40961452410471
 31
0.0
  0
LINE
  5
D3
  8
标注
 10
376.34484675796273
 20
159.0596145241025
 30
0.0
 11
376.34484675796273
 21
159.70961452410251
 31
0.0
  0
LINE
  5
D4
  8
标注
 10
376.34484675796273
 20
156.75961452410459
 30
0.0
 11
376.34484675796273
 21
156.1096145241047
 31
0.0
  0
LINE
  5
D5
  8
标注
 10
376.34484675796273
 20
158.40961452410241
 30
0.0
 11
376.34484675796273
 21
157.40961452410471
 31
0.0
  0
SOLID
  5
D6
  8
标注
 10
376.23651342462932
 20
159.0596145241025
 30
0.0
 11
376.45318009129602
 21
159.0596145241025
 31
0.0
 12
376.34484675796273
 22
158.40961452410241
 32
0.0
 13
376.34484675796273
 23
158.40961452410241
 33
0.0
  0
SOLID
  5
D7
  8
标注
 10
376.23651342462932
 20
156.75961452410459
 30
0.0
 11
376.45318009129602
 21
156.75961452410459
 31
0.0
 12
376.34484675796273
 22
157.40961452410471
 32
0.0
 13
376.34484675796273
 23
157.40961452410471
 33
0.0
  0
INSERT
  5
D8
  8
标注
  2
*U29
 10
0.0
 20
0.0
 30
0.0
  0
POINT
  5
D9
  8
DEFPOINTS
 62
     0
 10
385.69302736617919
 20
158.40961452410241
 30
0.0
  0
POINT
  5
DA
  8
DEFPOINTS
 62
     0
 10
383.62027146066401
 20
157.40961452410471
 30
0.0
  0
POINT
  5
DB
  8
DEFPOINTS
 62
     0
 10
376.34484675796273
 20
157.40961452410471
 30
0.0
  0
ENDBLK
  5
DC
  8
0
  0
BLOCK
  8
0
  2
*U29
 70
     1
 10
0.0
 20
0.0
 30
0.0
  3
*U29
  1

  0
TEXT
  5
1A13
  8
标注
 10
376.6698467579626
 20
155.25961452410479
 30
0.0
 40
0.65
  1
1"
 50
90.0
  0
ENDBLK
  5
1A15
  8
0
  0
BLOCK
  8
0
  2
*D30
 70
     1
 10
0.0
 20
0.0
 30
0.0
  3
*D30
  1

  0
LINE
  5
DF
  8
标注
 10
381.77779530578448
 20
189.45800334626981
 30
0.0
 11
381.25079437128232
 21
189.07751679587159
 31
0.0
  0
INSERT
  5
E0
  8
标注
  2
*U31
 10
0.0
 20
0.0
 30
0.0
  0
SOLID
  5
E1
  8
标注
 10
381.18737994621603
 20
189.16535028495531
 30
0.0
 11
381.31420879634879
 21
188.9896833067879
 31
0.0
 12
380.72379343678011
 22
188.6970302454734
 32
0.0
 13
380.72379343678011
 23
188.6970302454734
 33
0.0
  0
POINT
  5
E2
  8
DEFPOINTS
 62
     0
 10
380.72379343678011
 20
188.6970302454734
 30
0.0
  0
POINT
  5
E3
  8
DEFPOINTS
 62
     0
 10
382.34533477370979
 20
189.86775809285251
 30
0.0
  0
ENDBLK
  5
E4
  8
0
  0
BLOCK
  8
0
  2
*U31
 70
     1
 10
0.0
 20
0.0
 30
0.0
  3
*U31
  1

  0
TEXT
  5
1A17
  8
标注
 10
382.13019271467658
 20
189.31157566375671
 30
0.0
 40
0.65
  1
R2"
 50
35.828703712705583
  0
ENDBLK
  5
1A19
  8
0
  0
BLOCK
  8
0
  2
*D32
 70
     1
 10
0.0
 20
0.0
 30
0.0
  3
*D32
  1

  0
LINE
  5
E7
  8
标注
 10
396.03728698596171
 20
187.98463868452541
 30
0.0
 11
395.52190251768423
 21
187.58855933659311
 31
0.0
  0
INSERT
  5
E8
  8
标注
  2
*U33
 10
0.0
 20
0.0
 30
0.0
  0
SOLID
  5
E9
  8
标注
 10
395.45588929302892
 20
187.67445674797261
 30
0.0
 11
395.58791574233959
 21
187.5026619252134
 31
0.0
 12
395.00651804940702
 22
187.19247998866081
 32
0.0
 13
395.00651804940702
 23
187.19247998866081
 33
0.0
  0
POINT
  5
EA
  8
DEFPOINTS
 62
     0
 10
395.00651804940702
 20
187.19247998866081
 30
0.0
  0
POINT
  5
EB
  8
DEFPOINTS
 62
     0
 10
396.59231641333719
 20
188.4111856746064
 30
0.0
  0
ENDBLK
  5
EC
  8
0
  0
BLOCK
  8
0
  2
*U33
 70
     1
 10
0.0
 20
0.0
 30
0.0
  3
*U33
  1

  0
TEXT
  5
1A1B
  8
标注
 10
396.39390649632088
 20
187.84881701898141
 30
0.0
 40
0.65
  1
R2"
 50
37.542723995127197
  0
ENDBLK
  5
1A1D
  8
0
  0
BLOCK
  8
0
  2
*D34
 70
     1
 10
0.0
 20
0.0
 30
0.0
  3
*D34
  1

  0
LINE
  5
323
  8
标注
 10
145.67256455835781
 20
209.51287216134361
 30
0.0
 11
155.56863480277639
 21
209.51287216134361
 31
0.0
  0
LINE
  5
324
  8
标注
 10
148.7295724324201
 20
210.51287216134349
 30
0.0
 11
155.56863480277639
 21
210.51287216134349
 31
0.0
  0
LINE
  5
325
  8
标注
 10
155.24863480277639
 20
208.8628721613436
 30
0.0
 11
155.24863480277639
 21
208.2128721613436
 31
0.0
  0
LINE
  5
326
  8
标注
 10
155.24863480277639
 20
211.16287216134361
 30
0.0
 11
155.24863480277639
 21
211.81287216134351
 31
0.0
  0
LINE
  5
327
  8
标注
 10
155.24863480277639
 20
209.51287216134361
 30
0.0
 11
155.24863480277639
 21
210.51287216134349
 31
0.0
  0
SOLID
  5
328
  8
标注
 10
155.1403014694431
 20
208.8628721613436
 30
0.0
 11
155.35696813610971
 21
208.8628721613436
 31
0.0
 12
155.24863480277639
 22
209.51287216134361
 32
0.0
 13
155.24863480277639
 23
209.51287216134361
 33
0.0
  0
SOLID
  5
329
  8
标注
 10
155.1403014694431
 20
211.16287216134361
 30
0.0
 11
155.35696813610971
 21
211.16287216134361
 31
0.0
 12
155.24863480277639
 22
210.51287216134349
 32
0.0
 13
155.24863480277639
 23
210.51287216134349
 33
0.0
  0
INSERT
  5
32A
  8
标注
  2
*U35
 10
0.0
 20
0.0
 30
0.0
  0
POINT
  5
32B
  8
DEFPOINTS
 62
     0
 10
144.79256455835781
 20
209.51287216134361
 30
0.0
  0
POINT
  5
32C
  8
DEFPOINTS
 62
     0
 10
147.8495724324201
 20
210.51287216134349
 30
0.0
  0
POINT
  5
32D
  8
DEFPOINTS
 62
     0
 10
155.24863480277639
 20
210.51287216134349
 30
0.0
  0
ENDBLK
  5
2E9
  8
0
  0
BLOCK
  8
0
  2
*U35
 70
     1
 10
0.0
 20
0.0
 30
0.0
  3
*U35
  1

  0
TEXT
  5
1A23
  8
标注
 10
155.57363480277641
 20
212.01287216134361
 30
0.0
 40
0.65
  1
1"
 50
90.0
  0
ENDBLK
  5
1A25
  8
0
  0
BLOCK
  8
0
  2
*D36
 70
     1
 10
0.0
 20
0.0
 30
0.0
  3
*D36
  1

  0
LINE
  5
33C
  8
标注
 10
151.78658030643601
 20
199.2627934211861
 30
0.0
 11
151.78658030643601
 21
187.09858932253971
 31
0.0
  0
LINE
  5
33D
  8
标注
 10
152.78658030643581
 20
193.8297225550414
 30
0.0
 11
152.78658030643581
 21
187.09858932253971
 31
0.0
  0
LINE
  5
33E
  8
标注
 10
151.136580306436
 20
187.41858932253959
 30
0.0
 11
150.486580306436
 21
187.41858932253959
 31
0.0
  0
LINE
  5
33F
  8
标注
 10
153.4365803064359
 20
187.41858932253959
 30
0.0
 11
154.08658030643579
 21
187.41858932253959
 31
0.0
  0
LINE
  5
340
  8
标注
 10
151.78658030643601
 20
187.41858932253959
 30
0.0
 11
152.78658030643581
 21
187.41858932253959
 31
0.0
  0
SOLID
  5
341
  8
标注
 10
151.136580306436
 20
187.52692265587311
 30
0.0
 11
151.136580306436
 21
187.31025598920641
 31
0.0
 12
151.78658030643601
 22
187.41858932253959
 32
0.0
 13
151.78658030643601
 23
187.41858932253959
 33
0.0
  0
SOLID
  5
342
  8
标注
 10
153.4365803064359
 20
187.52692265587311
 30
0.0
 11
153.4365803064359
 21
187.31025598920641
 31
0.0
 12
152.78658030643581
 22
187.41858932253959
 32
0.0
 13
152.78658030643581
 23
187.41858932253959
 33
0.0
  0
INSERT
  5
343
  8
标注
  2
*U37
 10
0.0
 20
0.0
 30
0.0
  0
POINT
  5
344
  8
DEFPOINTS
 62
     0
 10
151.78658030643601
 20
200.14279342118621
 30
0.0
  0
POINT
  5
345
  8
DEFPOINTS
 62
     0
 10
152.78658030643581
 20
194.7097225550414
 30
0.0
  0
POINT
  5
346
  8
DEFPOINTS
 62
     0
 10
152.78658030643581
 20
187.41858932253959
 30
0.0
  0
ENDBLK
  5
2F7
  8
0
  0
BLOCK
  8
0
  2
*U37
 70
     1
 10
0.0
 20
0.0
 30
0.0
  3
*U37
  1

  0
TEXT
  5
1A2B
  8
标注
 10
154.28658030643581
 20
187.0935893225396
 30
0.0
 40
0.65
  1
1"
  0
ENDBLK
  5
1A2D
  8
0
  0
BLOCK
  8
0
  2
*D38
 70
     1
 10
0.0
 20
0.0
 30
0.0
  3
*D38
  1

  0
LINE
  5
398
  8
标注
 10
148.7295724324201
 20
210.51287216134349
 30
0.0
 11
158.0065956389688
 21
210.51287216134349
 31
0.0
  0
LINE
  5
399
  8
标注
 10
148.7295724324201
 20
189.7727146810258
 30
0.0
 11
158.0065956389688
 21
189.7727146810258
 31
0.0
  0
LINE
  5
39A
  8
标注
 10
157.68659563896881
 20
209.8628721613434
 30
0.0
 11
157.68659563896881
 21
202.3469600878513
 31
0.0
  0
LINE
  5
39B
  8
标注
 10
157.68659563896881
 20
190.42271468102581
 30
0.0
 11
157.68659563896881
 21
197.93862675451791
 31
0.0
  0
SOLID
  5
39C
  8
标注
 10
157.57826230563549
 20
209.8628721613434
 30
0.0
 11
157.79492897230219
 21
209.8628721613434
 31
0.0
 12
157.68659563896881
 22
210.51287216134349
 32
0.0
 13
157.68659563896881
 23
210.51287216134349
 33
0.0
  0
SOLID
  5
39D
  8
标注
 10
157.57826230563549
 20
190.42271468102581
 30
0.0
 11
157.7949289723021
 21
190.42271468102581
 31
0.0
 12
157.68659563896881
 22
189.7727146810258
 32
0.0
 13
157.68659563896881
 23
189.7727146810258
 33
0.0
  0
INSERT
  5
39E
  8
标注
  2
*U39
 10
0.0
 20
0.0
 30
0.0
  0
POINT
  5
39F
  8
DEFPOINTS
 62
     0
 10
147.8495724324201
 20
210.51287216134349
 30
0.0
  0
POINT
  5
3A0
  8
DEFPOINTS
 62
     0
 10
147.8495724324201
 20
189.7727146810258
 30
0.0
  0
POINT
  5
3A1
  8
DEFPOINTS
 62
     0
 10
157.68659563896881
 20
189.7727146810258
 30
0.0
  0
ENDBLK
  5
304
  8
0
  0
BLOCK
  8
0
  2
*U39
 70
     1
 10
0.0
 20
0.0
 30
0.0
  3
*U39
  1

  0
TEXT
  5
1A3F
  8
标注
 10
158.0115956389688
 20
198.13862675451799
 30
0.0
 40
0.65
  1
20 3/4"
 50
90.0
  0
ENDBLK
  5
1A41
  8
0
  0
BLOCK
  8
0
  2
*D40
 70
     1
 10
0.0
 20
0.0
 30
0.0
  3
*D40
  1

  0
LINE
  5
3BC
  8
标注
 10
137.73902890259649
 20
220.34773884146321
 30
0.0
 11
137.2236444343192
 21
219.95165949353091
 31
0.0
  0
INSERT
  5
3BD
  8
标注
  2
*U41
 10
0.0
 20
0.0
 30
0.0
  0
SOLID
  5
3BE
  8
标注
 10
137.1576312096638
 20
220.03755690491039
 30
0.0
 11
137.28965765897459
 21
219.86576208215129
 31
0.0
 12
136.70825996604191
 22
219.55558014559861
 32
0.0
 13
136.70825996604191
 23
219.55558014559861
 33
0.0
  0
POINT
  5
3BF
  8
DEFPOINTS
 62
     0
 10
136.70825996604191
 20
219.55558014559861
 30
0.0
  0
POINT
  5
3C0
  8
DEFPOINTS
 62
     0
 10
138.2940583299721
 20
220.77428583154409
 30
0.0
  0
ENDBLK
  5
30C
  8
0
  0
BLOCK
  8
0
  2
*U41
 70
     1
 10
0.0
 20
0.0
 30
0.0
  3
*U41
  1

  0
TEXT
  5
1A4B
  8
标注
 10
138.09564841295571
 20
220.2119171759191
 30
0.0
 40
0.65
  1
R2"
 50
37.542723995127602
  0
ENDBLK
  5
1A4D
  8
0
  0
BLOCK
  8
0
  2
*D42
 70
     1
 10
0.0
 20
0.0
 30
0.0
  3
*D42
  1

  0
LINE
  5
3C1
  8
标注
 10
123.4795372224193
 20
221.82110350320769
 30
0.0
 11
122.9525362879172
 21
221.44061695280951
 31
0.0
  0
INSERT
  5
3C2
  8
标注
  2
*U43
 10
0.0
 20
0.0
 30
0.0
  0
SOLID
  5
3C3
  8
标注
 10
122.8891218628509
 20
221.52845044189311
 30
0.0
 11
123.0159507129836
 21
221.35278346372581
 31
0.0
 12
122.4255353534152
 22
221.06013040241129
 32
0.0
 13
122.4255353534152
 23
221.06013040241129
 33
0.0
  0
POINT
  5
3C4
  8
DEFPOINTS
 62
     0
 10
122.4255353534152
 20
221.06013040241129
 30
0.0
  0
POINT
  5
3C5
  8
DEFPOINTS
 62
     0
 10
124.0470766903445
 20
222.2308582497904
 30
0.0
  0
ENDBLK
  5
314
  8
0
  0
BLOCK
  8
0
  2
*U43
 70
     1
 10
0.0
 20
0.0
 30
0.0
  3
*U43
  1

  0
TEXT
  5
1A4F
  8
标注
 10
123.8319346313113
 20
221.6746758206944
 30
0.0
 40
0.65
  1
R2"
 50
35.828703712705583
  0
ENDBLK
  5
1A51
  8
0
  0
BLOCK
  8
0
  2
*D44
 70
     1
 10
0.0
 20
0.0
 30
0.0
  3
*D44
  1

  0
LINE
  5
316
  8
标注
 10
126.5147692828139
 20
190.77271468103999
 30
0.0
 11
117.72658867459739
 21
190.77271468103999
 31
0.0
  0
LINE
  5
317
  8
标注
 10
124.44201337729859
 20
189.7727146810424
 30
0.0
 11
117.72658867459739
 21
189.7727146810424
 31
0.0
  0
LINE
  5
318
  8
标注
 10
118.0465886745974
 20
191.42271468104019
 30
0.0
 11
118.0465886745974
 21
192.0727146810402
 31
0.0
  0
LINE
  5
319
  8
标注
 10
118.0465886745974
 20
189.1227146810424
 30
0.0
 11
118.0465886745974
 21
188.47271468104239
 31
0.0
  0
LINE
  5
31A
  8
标注
 10
118.0465886745974
 20
190.77271468103999
 30
0.0
 11
118.0465886745974
 21
189.7727146810424
 31
0.0
  0
SOLID
  5
31B
  8
标注
 10
117.9382553412641
 20
191.42271468104019
 30
0.0
 11
118.15492200793079
 21
191.42271468104019
 31
0.0
 12
118.0465886745974
 22
190.77271468103999
 32
0.0
 13
118.0465886745974
 23
190.77271468103999
 33
0.0
  0
SOLID
  5
31C
  8
标注
 10
117.9382553412641
 20
189.1227146810424
 30
0.0
 11
118.15492200793079
 21
189.1227146810424
 31
0.0
 12
118.0465886745974
 22
189.7727146810424
 32
0.0
 13
118.0465886745974
 23
189.7727146810424
 33
0.0
  0
INSERT
  5
31D
  8
标注
  2
*U45
 10
0.0
 20
0.0
 30
0.0
  0
POINT
  5
31E
  8
DEFPOINTS
 62
     0
 10
127.3947692828139
 20
190.77271468103999
 30
0.0
  0
POINT
  5
31F
  8
DEFPOINTS
 62
     0
 10
125.3220133772987
 20
189.7727146810424
 30
0.0
  0
POINT
  5
320
  8
DEFPOINTS
 62
     0
 10
118.0465886745974
 20
189.7727146810424
 30
0.0
  0
ENDBLK
  5
322
  8
0
  0
BLOCK
  8
0
  2
*U45
 70
     1
 10
0.0
 20
0.0
 30
0.0
  3
*U45
  1

  0
TEXT
  5
1A1F
  8
标注
 10
118.3715886745974
 20
187.6227146810424
 30
0.0
 40
0.65
  1
1"
 50
90.0
  0
ENDBLK
  5
1A21
  8
0
  0
BLOCK
  8
0
  2
*D46
 70
     1
 10
0.0
 20
0.0
 30
0.0
  3
*D46
  1

  0
LINE
  5
32F
  8
标注
 10
134.77083227494001
 20
199.92043121647399
 30
0.0
 11
134.77083227494001
 21
199.5827934211861
 31
0.0
  0
LINE
  5
330
  8
标注
 10
136.03854881037299
 20
199.92043121647399
 30
0.0
 11
136.03854881037299
 21
199.5827934211861
 31
0.0
  0
LINE
  5
331
  8
标注
 10
134.12083227494
 20
199.2627934211861
 30
0.0
 11
133.47083227493999
 21
199.2627934211861
 31
0.0
  0
LINE
  5
332
  8
标注
 10
136.68854881037311
 20
199.2627934211861
 30
0.0
 11
137.33854881037311
 21
199.2627934211861
 31
0.0
  0
LINE
  5
333
  8
标注
 10
134.77083227494001
 20
199.2627934211861
 30
0.0
 11
136.03854881037299
 21
199.2627934211861
 31
0.0
  0
SOLID
  5
334
  8
标注
 10
134.12083227494
 20
199.37112675451951
 30
0.0
 11
134.12083227494
 21
199.15446008785281
 31
0.0
 12
134.77083227494001
 22
199.2627934211861
 32
0.0
 13
134.77083227494001
 23
199.2627934211861
 33
0.0
  0
SOLID
  5
335
  8
标注
 10
136.68854881037311
 20
199.37112675451951
 30
0.0
 11
136.68854881037311
 21
199.15446008785281
 31
0.0
 12
136.03854881037299
 22
199.2627934211861
 32
0.0
 13
136.03854881037299
 23
199.2627934211861
 33
0.0
  0
INSERT
  5
336
  8
标注
  2
*U47
 10
0.0
 20
0.0
 30
0.0
  0
POINT
  5
337
  8
DEFPOINTS
 62
     0
 10
134.77083227494001
 20
199.0404312164741
 30
0.0
  0
POINT
  5
338
  8
DEFPOINTS
 62
     0
 10
136.03854881037299
 20
199.0404312164741
 30
0.0
  0
POINT
  5
339
  8
DEFPOINTS
 62
     0
 10
136.03854881037299
 20
199.2627934211861
 30
0.0
  0
ENDBLK
  5
33B
  8
0
  0
BLOCK
  8
0
  2
*U47
 70
     1
 10
0.0
 20
0.0
 30
0.0
  3
*U47
  1

  0
TEXT
  5
1A27
  8
标注
 10
137.53854881037299
 20
198.93779342118609
 30
0.0
 40
0.65
  1
1 1/4"
  0
ENDBLK
  5
1A29
  8
0
  0
BLOCK
  8
0
  2
*D48
 70
     1
 10
0.0
 20
0.0
 30
0.0
  3
*D48
  1

  0
LINE
  5
3C6
  8
标注
 10
123.82380323882511
 20
193.0095116021601
 30
0.0
 11
123.3254553274277
 21
192.5921995376257
 31
0.0
  0
INSERT
  5
3C7
  8
标注
  2
*U49
 10
0.0
 20
0.0
 30
0.0
  0
SOLID
  5
3C8
  8
标注
 10
123.2559033166719
 20
192.6752575228584
 30
0.0
 11
123.3950073381834
 21
192.5091415523928
 31
0.0
 12
122.8271074160303
 22
192.1748874730915
 32
0.0
 13
122.8271074160303
 23
192.1748874730915
 33
0.0
  0
POINT
  5
3C9
  8
DEFPOINTS
 62
     0
 10
122.8271074160303
 20
192.1748874730915
 30
0.0
  0
POINT
  5
3CA
  8
DEFPOINTS
 62
     0
 10
125.5437223176513
 20
194.44975638938971
 30
0.0
  0
ENDBLK
  5
34E
  8
0
  0
BLOCK
  8
0
  2
*U49
 70
     1
 10
0.0
 20
0.0
 30
0.0
  3
*U49
  1

  0
TEXT
  5
1A53
  8
标注
 10
124.18579708998369
 20
192.88874135862571
 30
0.0
 40
0.65
  1
R3 1/2"
 50
39.942503704134587
  0
ENDBLK
  5
1A55
  8
0
  0
BLOCK
  8
0
  2
*D50
 70
     1
 10
0.0
 20
0.0
 30
0.0
  3
*D50
  1

  0
LINE
  5
3CB
  8
标注
 10
138.1649362874002
 20
193.16152833727691
 30
0.0
 11
137.66710497546609
 21
192.74360013188971
 31
0.0
  0
INSERT
  5
3CC
  8
标注
  2
*U51
 10
0.0
 20
0.0
 30
0.0
  0
SOLID
  5
3CD
  8
标注
 10
137.5974502745683
 20
192.8265720172121
 30
0.0
 11
137.73675967636399
 21
192.66062824656751
 31
0.0
 12
137.1692736635321
 22
192.32567192650239
 32
0.0
 13
137.1692736635321
 23
192.32567192650239
 33
0.0
  0
POINT
  5
3CE
  8
DEFPOINTS
 62
     0
 10
137.1692736635321
 20
192.32567192650239
 30
0.0
  0
POINT
  5
3CF
  8
DEFPOINTS
 62
     0
 10
140.1846056558642
 20
194.85703598093679
 30
0.0
  0
ENDBLK
  5
356
  8
0
  0
BLOCK
  8
0
  2
*U51
 70
     1
 10
0.0
 20
0.0
 30
0.0
  3
*U51
  1

  0
TEXT
  5
1A57
  8
标注
 10
138.5270792553041
 20
193.04120597527501
 30
0.0
 40
0.65
  1
R3 7/8"
 50
40.013379034839602
  0
ENDBLK
  5
1A59
  8
0
  0
BLOCK
  8
0
  2
*D52
 70
     1
 10
0.0
 20
0.0
 30
0.0
  3
*D52
  1

  0
LINE
  5
358
  8
标注
 10
152.78658030643581
 20
193.8297225550414
 30
0.0
 11
152.78658030643581
 21
184.8511816833886
 31
0.0
  0
LINE
  5
359
  8
标注
 10
120.77870629068801
 20
193.4360217676566
 30
0.0
 11
120.77870629068801
 21
184.8511816833886
 31
0.0
  0
LINE
  5
35A
  8
标注
 10
152.1365803064358
 20
185.1711816833886
 30
0.0
 11
137.74097663189519
 21
185.1711816833886
 31
0.0
  0
LINE
  5
35B
  8
标注
 10
121.428706290688
 20
185.1711816833886
 30
0.0
 11
135.82430996522851
 21
185.1711816833886
 31
0.0
  0
SOLID
  5
35C
  8
标注
 10
152.1365803064358
 20
185.27951501672189
 30
0.0
 11
152.1365803064358
 21
185.0628483500553
 31
0.0
 12
152.78658030643581
 22
185.1711816833886
 32
0.0
 13
152.78658030643581
 23
185.1711816833886
 33
0.0
  0
SOLID
  5
35D
  8
标注
 10
121.428706290688
 20
185.27951501672189
 30
0.0
 11
121.428706290688
 21
185.0628483500553
 31
0.0
 12
120.77870629068801
 22
185.1711816833886
 32
0.0
 13
120.77870629068801
 23
185.1711816833886
 33
0.0
  0
INSERT
  5
35E
  8
标注
  2
*U53
 10
0.0
 20
0.0
 30
0.0
  0
POINT
  5
35F
  8
DEFPOINTS
 62
     0
 10
152.78658030643581
 20
194.7097225550414
 30
0.0
  0
POINT
  5
360
  8
DEFPOINTS
 62
     0
 10
120.77870629068801
 20
194.31602176765651
 30
0.0
  0
POINT
  5
361
  8
DEFPOINTS
 62
     0
 10
120.77870629068801
 20
185.1711816833886
 30
0.0
  0
ENDBLK
  5
363
  8
0
  0
BLOCK
  8
0
  2
*U53
 70
     1
 10
0.0
 20
0.0
 30
0.0
  3
*U53
  1

  0
TEXT
  5
1A2F
  8
标注
 10
136.02430996522861
 20
184.84618168338861
 30
0.0
 40
0.65
  1
32"
  0
ENDBLK
  5
1A31
  8
0
  0
BLOCK
  8
0
  2
*D54
 70
     1
 10
0.0
 20
0.0
 30
0.0
  3
*D54
  1

  0
LINE
  5
365
  8
标注
 10
134.77083227493989
 20
198.16043121647431
 30
0.0
 11
134.77083227493989
 21
187.09457995082479
 31
0.0
  0
LINE
  5
366
  8
标注
 10
121.77870629068801
 20
198.1604312164732
 30
0.0
 11
121.77870629068801
 21
187.09457995082479
 31
0.0
  0
LINE
  5
367
  8
标注
 10
134.12083227493989
 20
187.41457995082479
 30
0.0
 11
129.1247692828139
 21
187.41457995082479
 31
0.0
  0
LINE
  5
368
  8
标注
 10
122.428706290688
 20
187.41457995082479
 30
0.0
 11
127.4247692828139
 21
187.41457995082479
 31
0.0
  0
SOLID
  5
369
  8
标注
 10
134.12083227493989
 20
187.52291328415819
 30
0.0
 11
134.12083227493989
 21
187.3062466174915
 31
0.0
 12
134.77083227493989
 22
187.41457995082479
 32
0.0
 13
134.77083227493989
 23
187.41457995082479
 33
0.0
  0
SOLID
  5
36A
  8
标注
 10
122.428706290688
 20
187.52291328415819
 30
0.0
 11
122.428706290688
 21
187.3062466174915
 31
0.0
 12
121.77870629068801
 22
187.41457995082479
 32
0.0
 13
121.77870629068801
 23
187.41457995082479
 33
0.0
  0
INSERT
  5
36B
  8
标注
  2
*U55
 10
0.0
 20
0.0
 30
0.0
  0
POINT
  5
36C
  8
DEFPOINTS
 62
     0
 10
134.77083227493989
 20
199.0404312164741
 30
0.0
  0
POINT
  5
36D
  8
DEFPOINTS
 62
     0
 10
121.77870629068801
 20
199.04043121647319
 30
0.0
  0
POINT
  5
36E
  8
DEFPOINTS
 62
     0
 10
121.77870629068801
 20
187.41457995082479
 30
0.0
  0
ENDBLK
  5
370
  8
0
  0
BLOCK
  8
0
  2
*U55
 70
     1
 10
0.0
 20
0.0
 30
0.0
  3
*U55
  1

  0
TEXT
  5
1A33
  8
标注
 10
127.6247692828139
 20
187.0895799508248
 30
0.0
 40
0.65
  1
13"
  0
ENDBLK
  5
1A35
  8
0
  0
BLOCK
  8
0
  2
*D56
 70
     1
 10
0.0
 20
0.0
 30
0.0
  3
*D56
  1

  0
LINE
  5
3D0
  8
标注
 10
151.78658030643601
 20
199.2627934211861
 30
0.0
 11
151.78658030643601
 21
187.09858932253971
 31
0.0
  0
LINE
  5
3D1
  8
标注
 10
136.03854881037299
 20
199.2627934211861
 30
0.0
 11
136.03854881037299
 21
187.09858932253971
 31
0.0
  0
LINE
  5
3D2
  8
标注
 10
151.1365803064358
 20
187.41858932253959
 30
0.0
 11
146.0625645584044
 21
187.41858932253959
 31
0.0
  0
LINE
  5
3D3
  8
标注
 10
136.68854881037299
 20
187.41858932253959
 30
0.0
 11
141.76256455840451
 21
187.41858932253959
 31
0.0
  0
SOLID
  5
3D4
  8
标注
 10
151.1365803064358
 20
187.52692265587311
 30
0.0
 11
151.1365803064358
 21
187.31025598920641
 31
0.0
 12
151.78658030643601
 22
187.41858932253959
 32
0.0
 13
151.78658030643601
 23
187.41858932253959
 33
0.0
  0
SOLID
  5
3D5
  8
标注
 10
136.68854881037299
 20
187.52692265587311
 30
0.0
 11
136.68854881037299
 21
187.31025598920641
 31
0.0
 12
136.03854881037299
 22
187.41858932253959
 32
0.0
 13
136.03854881037299
 23
187.41858932253959
 33
0.0
  0
INSERT
  5
3D6
  8
标注
  2
*U57
 10
0.0
 20
0.0
 30
0.0
  0
POINT
  5
3D7
  8
DEFPOINTS
 62
     0
 10
151.78658030643601
 20
200.14279342118621
 30
0.0
  0
POINT
  5
3D8
  8
DEFPOINTS
 62
     0
 10
136.03854881037299
 20
200.14279342118621
 30
0.0
  0
POINT
  5
3D9
  8
DEFPOINTS
 62
     0
 10
136.03854881037299
 20
187.41858932253959
 30
0.0
  0
ENDBLK
  5
37D
  8
0
  0
BLOCK
  8
0
  2
*U57
 70
     1
 10
0.0
 20
0.0
 30
0.0
  3
*U57
  1

  0
TEXT
  5
1A5B
  8
标注
 10
141.96256455840441
 20
187.0935893225396
 30
0.0
 40
0.65
  1
15 3/4"
  0
ENDBLK
  5
1A5D
  8
0
  0
BLOCK
  8
0
  2
*D58
 70
     1
 10
0.0
 20
0.0
 30
0.0
  3
*D58
  1

  0
LINE
  5
37F
  8
标注
 10
124.4420133773021
 20
208.3081477519064
 30
0.0
 11
115.38542775920099
 21
208.3081477519064
 31
0.0
  0
LINE
  5
380
  8
标注
 10
124.4420133773021
 20
189.7727146810424
 30
0.0
 11
115.38542775920099
 21
189.7727146810424
 31
0.0
  0
LINE
  5
381
  8
标注
 10
115.705427759201
 20
207.6581477519064
 30
0.0
 11
115.705427759201
 21
201.08209788314099
 31
0.0
  0
LINE
  5
382
  8
标注
 10
115.705427759201
 20
190.42271468104241
 30
0.0
 11
115.705427759201
 21
196.9987645498077
 31
0.0
  0
SOLID
  5
383
  8
标注
 10
115.5970944258677
 20
207.6581477519064
 30
0.0
 11
115.81376109253441
 21
207.6581477519064
 31
0.0
 12
115.705427759201
 22
208.3081477519064
 32
0.0
 13
115.705427759201
 23
208.3081477519064
 33
0.0
  0
SOLID
  5
384
  8
标注
 10
115.5970944258677
 20
190.42271468104241
 30
0.0
 11
115.81376109253441
 21
190.42271468104241
 31
0.0
 12
115.705427759201
 22
189.7727146810424
 32
0.0
 13
115.705427759201
 23
189.7727146810424
 33
0.0
  0
INSERT
  5
385
  8
标注
  2
*U59
 10
0.0
 20
0.0
 30
0.0
  0
POINT
  5
386
  8
DEFPOINTS
 62
     0
 10
125.3220133773021
 20
208.3081477519064
 30
0.0
  0
POINT
  5
387
  8
DEFPOINTS
 62
     0
 10
125.3220133773021
 20
189.7727146810424
 30
0.0
  0
POINT
  5
388
  8
DEFPOINTS
 62
     0
 10
115.705427759201
 20
189.7727146810424
 30
0.0
  0
ENDBLK
  5
38A
  8
0
  0
BLOCK
  8
0
  2
*U59
 70
     1
 10
0.0
 20
0.0
 30
0.0
  3
*U59
  1

  0
TEXT
  5
1A37
  8
标注
 10
116.030427759201
 20
197.19876454980769
 30
0.0
 40
0.65
  1
18 1/2"
 50
90.0
  0
ENDBLK
  5
1A39
  8
0
  0
BLOCK
  8
0
  2
*D60
 70
     1
 10
0.0
 20
0.0
 30
0.0
  3
*D60
  1

  0
LINE
  5
38C
  8
标注
 10
127.3947692828139
 20
207.30814775190629
 30
0.0
 11
117.72658867459739
 21
207.30814775190629
 31
0.0
  0
LINE
  5
38D
  8
标注
 10
127.394769282814
 20
190.77271468103999
 30
0.0
 11
117.72658867459739
 21
190.77271468103999
 31
0.0
  0
LINE
  5
38E
  8
标注
 10
118.0465886745974
 20
206.65814775190631
 30
0.0
 11
118.0465886745974
 21
201.0820978831398
 31
0.0
  0
LINE
  5
38F
  8
标注
 10
118.0465886745974
 20
191.42271468104019
 30
0.0
 11
118.0465886745974
 21
196.99876454980651
 31
0.0
  0
SOLID
  5
390
  8
标注
 10
117.938255341264
 20
206.65814775190631
 30
0.0
 11
118.15492200793059
 21
206.65814775190631
 31
0.0
 12
118.0465886745974
 22
207.30814775190629
 32
0.0
 13
118.0465886745974
 23
207.30814775190629
 33
0.0
  0
SOLID
  5
391
  8
标注
 10
117.938255341264
 20
191.42271468104019
 30
0.0
 11
118.15492200793059
 21
191.42271468104019
 31
0.0
 12
118.0465886745974
 22
190.77271468103999
 32
0.0
 13
118.0465886745974
 23
190.77271468103999
 33
0.0
  0
INSERT
  5
392
  8
标注
  2
*U61
 10
0.0
 20
0.0
 30
0.0
  0
POINT
  5
393
  8
DEFPOINTS
 62
     0
 10
128.27476928281391
 20
207.30814775190629
 30
0.0
  0
POINT
  5
394
  8
DEFPOINTS
 62
     0
 10
128.27476928281391
 20
190.77271468103999
 30
0.0
  0
POINT
  5
395
  8
DEFPOINTS
 62
     0
 10
118.0465886745974
 20
190.77271468103999
 30
0.0
  0
ENDBLK
  5
397
  8
0
  0
BLOCK
  8
0
  2
*U61
 70
     1
 10
0.0
 20
0.0
 30
0.0
  3
*U61
  1

  0
TEXT
  5
1A3B
  8
标注
 10
118.3715886745974
 20
197.1987645498065
 30
0.0
 40
0.65
  1
16 1/2"
 50
90.0
  0
ENDBLK
  5
1A3D
  8
0
  0
BLOCK
  8
0
  2
*D62
 70
     1
 10
0.0
 20
0.0
 30
0.0
  3
*D62
  1

  0
LINE
  5
3A3
  8
标注
 10
144.79256455835781
 20
209.51287216134361
 30
0.0
 11
155.56863480277639
 21
209.51287216134361
 31
0.0
  0
LINE
  5
3A4
  8
标注
 10
144.7925645583307
 20
190.7727146810285
 30
0.0
 11
155.56863480277639
 21
190.7727146810285
 31
0.0
  0
LINE
  5
3A5
  8
标注
 10
155.24863480277639
 20
208.8628721613436
 30
0.0
 11
155.24863480277639
 21
202.2927934211861
 31
0.0
  0
LINE
  5
3A6
  8
标注
 10
155.24863480277639
 20
191.42271468102871
 30
0.0
 11
155.24863480277639
 21
197.99279342118609
 31
0.0
  0
SOLID
  5
3A7
  8
标注
 10
155.1403014694431
 20
208.8628721613436
 30
0.0
 11
155.35696813610971
 21
208.8628721613436
 31
0.0
 12
155.24863480277639
 22
209.51287216134361
 32
0.0
 13
155.24863480277639
 23
209.51287216134361
 33
0.0
  0
SOLID
  5
3A8
  8
标注
 10
155.1403014694431
 20
191.42271468102871
 30
0.0
 11
155.35696813610971
 21
191.42271468102871
 31
0.0
 12
155.24863480277639
 22
190.7727146810285
 32
0.0
 13
155.24863480277639
 23
190.7727146810285
 33
0.0
  0
INSERT
  5
3A9
  8
标注
  2
*U63
 10
0.0
 20
0.0
 30
0.0
  0
POINT
  5
3AA
  8
DEFPOINTS
 62
     0
 10
143.91256455835779
 20
209.51287216134361
 30
0.0
  0
POINT
  5
3AB
  8
DEFPOINTS
 62
     0
 10
143.9125645583307
 20
190.7727146810285
 30
0.0
  0
POINT
  5
3AC
  8
DEFPOINTS
 62
     0
 10
155.24863480277639
 20
190.7727146810285
 30
0.0
  0
ENDBLK
  5
3AE
  8
0
  0
BLOCK
  8
0
  2
*U63
 70
     1
 10
0.0
 20
0.0
 30
0.0
  3
*U63
  1

  0
TEXT
  5
1A43
  8
标注
 10
155.57363480277641
 20
198.19279342118611
 30
0.0
 40
0.65
  1
18 3/4"
 50
90.0
  0
ENDBLK
  5
1A45
  8
0
  0
BLOCK
  8
0
  2
*D64
 70
     1
 10
0.0
 20
0.0
 30
0.0
  3
*D64
  1

  0
LINE
  5
3B0
  8
标注
 10
119.898706290688
 20
227.55303736696629
 30
0.0
 11
117.7668041979879
 21
227.55303736696629
 31
0.0
  0
LINE
  5
3B1
  8
标注
 10
125.4461691089878
 20
220.08453342995611
 30
0.0
 11
117.7668041979879
 21
220.08453342995611
 31
0.0
  0
LINE
  5
3B2
  8
标注
 10
118.0868041979879
 20
226.90303736696629
 30
0.0
 11
118.0868041979879
 21
225.64378539846129
 31
0.0
  0
LINE
  5
3B3
  8
标注
 10
118.0868041979879
 20
220.7345334299562
 30
0.0
 11
118.0868041979879
 21
221.99378539846131
 31
0.0
  0
SOLID
  5
3B4
  8
标注
 10
117.9784708646546
 20
226.90303736696629
 30
0.0
 11
118.19513753132129
 21
226.90303736696629
 31
0.0
 12
118.0868041979879
 22
227.55303736696629
 32
0.0
 13
118.0868041979879
 23
227.55303736696629
 33
0.0
  0
SOLID
  5
3B5
  8
标注
 10
117.9784708646546
 20
220.7345334299562
 30
0.0
 11
118.19513753132119
 21
220.7345334299562
 31
0.0
 12
118.0868041979879
 22
220.08453342995611
 32
0.0
 13
118.0868041979879
 23
220.08453342995611
 33
0.0
  0
INSERT
  5
3B6
  8
标注
  2
*U65
 10
0.0
 20
0.0
 30
0.0
  0
POINT
  5
3B7
  8
DEFPOINTS
 62
     0
 10
120.77870629068801
 20
227.55303736696629
 30
0.0
  0
POINT
  5
3B8
  8
DEFPOINTS
 62
     0
 10
126.3261691089878
 20
220.08453342995611
 30
0.0
  0
POINT
  5
3B9
  8
DEFPOINTS
 62
     0
 10
118.0868041979879
 20
220.08453342995611
 30
0.0
  0
ENDBLK
  5
3BB
  8
0
  0
BLOCK
  8
0
  2
*U65
 70
     1
 10
0.0
 20
0.0
 30
0.0
  3
*U65
  1

  0
TEXT
  5
1A47
  8
标注
 10
118.41180419798791
 20
222.1937853984613
 30
0.0
 40
0.65
  1
7 1/2"
 50
90.0
  0
ENDBLK
  5
1A49
  8
0
  0
BLOCK
  8
0
  2
*D66
 70
     1
 10
0.0
 20
0.0
 30
0.0
  3
*D66
  1

  0
LINE
  5
3DE
  8
标注
 62
     3
 10
-1381.0662548046121
 20
-467.89791839691941
 30
0.0
 11
-1333.6891757642379
 21
-467.89791839691941
 31
0.0
  0
LINE
  5
3DF
  8
标注
 62
     3
 10
-1491.44174555377
 20
-658.62972168818942
 30
0.0
 11
-1333.6891757642379
 21
-658.62972168818942
 31
0.0
  0
LINE
  5
3E0
  8
标注
 62
     3
 10
-1341.6891757642379
 20
-445.89791839691918
 30
0.0
 11
-1341.6891757642379
 21
-423.89791839691952
 31
0.0
  0
LINE
  5
3E1
  8
标注
 62
     3
 10
-1341.6891757642379
 20
-680.62972168818942
 30
0.0
 11
-1341.6891757642379
 21
-702.62972168818953
 31
0.0
  0
LINE
  5
3E2
  8
标注
 62
     3
 10
-1341.6891757642379
 20
-467.89791839691941
 30
0.0
 11
-1341.6891757642379
 21
-487.55437519756509
 31
0.0
  0
LINE
  5
3E3
  8
标注
 62
     3
 10
-1341.6891757642379
 20
-658.62972168818942
 30
0.0
 11
-1341.6891757642379
 21
-638.97326488754368
 31
0.0
  0
SOLID
  5
3E4
  8
标注
 62
     3
 10
-1345.3558424309051
 20
-445.89791839691918
 30
0.0
 11
-1338.0225090975709
 21
-445.89791839691918
 31
0.0
 12
-1341.6891757642379
 22
-467.89791839691941
 32
0.0
 13
-1341.6891757642379
 23
-467.89791839691941
 33
0.0
  0
SOLID
  5
3E5
  8
标注
 62
     3
 10
-1345.3558424309051
 20
-680.62972168818942
 30
0.0
 11
-1338.0225090975721
 21
-680.62972168818942
 31
0.0
 12
-1341.6891757642379
 22
-658.62972168818942
 32
0.0
 13
-1341.6891757642379
 23
-658.62972168818942
 33
0.0
  0
INSERT
  5
3E6
  8
标注
  2
*U67
 10
0.0
 20
0.0
 30
0.0
  0
POINT
  5
3E7
  8
DEFPOINTS
 62
     0
 10
-1406.0662548046121
 20
-467.89791839691941
 30
0.0
  0
POINT
  5
3E8
  8
DEFPOINTS
 62
     0
 10
-1516.44174555377
 20
-658.62972168818942
 30
0.0
  0
POINT
  5
3E9
  8
DEFPOINTS
 62
     0
 10
-1341.6891757642379
 20
-658.62972168818942
 30
0.0
  0
ENDBLK
  5
3EA
  8
0
  0
BLOCK
  8
0
  2
*U67
 70
     1
 10
0.0
 20
0.0
 30
0.0
  3
*U67
  1

  0
TEXT
  5
1A5F
  8
标注
 62
     3
 10
-1331.6891757642379
 20
-659.93048670922144
 30
0.0
 40
20.0
  1
191 [7 1/2"]
 50
90.0
  0
ENDBLK
  5
1A61
  8
0
  0
BLOCK
  8
0
  2
*D68
 70
     1
 10
0.0
 20
0.0
 30
0.0
  3
*D68
  1

  0
LINE
  5
3ED
  8
标注
 62
     3
 10
-2231.066254804613
 20
-467.8979183969131
 30
0.0
 11
-2287.4324396663651
 21
-467.8979183969131
 31
0.0
  0
LINE
  5
3EE
  8
标注
 62
     3
 10
-2025.4417455526541
 20
-721.92972168822223
 30
0.0
 11
-2287.4324396663651
 21
-721.92972168822223
 31
0.0
  0
LINE
  5
3EF
  8
标注
 62
     3
 10
-2279.4324396663651
 20
-489.8979183969131
 30
0.0
 11
-2279.4324396663651
 21
-532.96789358258195
 31
0.0
  0
LINE
  5
3F0
  8
标注
 62
     3
 10
-2279.4324396663651
 20
-699.92972168822223
 30
0.0
 11
-2279.4324396663651
 21
-656.85974650255321
 31
0.0
  0
SOLID
  5
3F1
  8
标注
 62
     3
 10
-2283.0991063330312
 20
-489.8979183969131
 30
0.0
 11
-2275.7657729996981
 21
-489.8979183969131
 31
0.0
 12
-2279.4324396663651
 22
-467.8979183969131
 32
0.0
 13
-2279.4324396663651
 23
-467.8979183969131
 33
0.0
  0
SOLID
  5
3F2
  8
标注
 62
     3
 10
-2283.0991063330312
 20
-699.92972168822223
 30
0.0
 11
-2275.7657729996981
 21
-699.92972168822223
 31
0.0
 12
-2279.4324396663651
 22
-721.92972168822223
 32
0.0
 13
-2279.4324396663651
 23
-721.92972168822223
 33
0.0
  0
INSERT
  5
3F3
  8
标注
  2
*U69
 10
0.0
 20
0.0
 30
0.0
  0
POINT
  5
3F4
  8
DEFPOINTS
 62
     0
 10
-2206.066254804613
 20
-467.8979183969131
 30
0.0
  0
POINT
  5
3F5
  8
DEFPOINTS
 62
     0
 10
-2000.4417455526541
 20
-721.92972168822223
 30
0.0
  0
POINT
  5
3F6
  8
DEFPOINTS
 62
     0
 10
-2279.4324396663651
 20
-721.92972168822223
 30
0.0
  0
ENDBLK
  5
3F7
  8
0
  0
BLOCK
  8
0
  2
*U69
 70
     1
 10
0.0
 20
0.0
 30
0.0
  3
*U69
  1

  0
TEXT
  5
1A63
  8
标注
 62
     3
 10
-2269.4324396663651
 20
-666.58048670923449
 30
0.0
 40
20.0
  1
254 [10"]
 50
90.0
  0
ENDBLK
  5
1A65
  8
0
  0
BLOCK
  8
0
  2
*D70
 70
     1
 10
0.0
 20
0.0
 30
0.0
  3
*D70
  1

  0
LINE
  5
3FA
  8
标注
 62
     3
 10
-1538.8412548046119
 20
-935.03493547823109
 30
0.0
 11
-1328.5703852606589
 21
-935.03493547823109
 31
0.0
  0
LINE
  5
3FB
  8
标注
 62
     3
 10
-1538.841254804614
 20
-1341.03493547823
 30
0.0
 11
-1328.5703852606589
 21
-1341.03493547823
 31
0.0
  0
LINE
  5
3FC
  8
标注
 62
     3
 10
-1336.570385260658
 20
-957.03493547823052
 30
0.0
 11
-1336.570385260658
 21
-1076.002491354222
 31
0.0
  0
LINE
  5
3FD
  8
标注
 62
     3
 10
-1336.570385260658
 20
-1319.03493547823
 30
0.0
 11
-1336.570385260658
 21
-1200.067379602239
 31
0.0
  0
SOLID
  5
3FE
  8
标注
 62
     3
 10
-1340.237051927325
 20
-957.03493547823052
 30
0.0
 11
-1332.9037185939919
 21
-957.03493547823052
 31
0.0
 12
-1336.570385260658
 22
-935.03493547823109
 32
0.0
 13
-1336.570385260658
 23
-935.03493547823109
 33
0.0
  0
SOLID
  5
3FF
  8
标注
 62
     3
 10
-1340.237051927325
 20
-1319.03493547823
 30
0.0
 11
-1332.9037185939919
 21
-1319.03493547823
 31
0.0
 12
-1336.570385260658
 22
-1341.03493547823
 32
0.0
 13
-1336.570385260658
 23
-1341.03493547823
 33
0.0
  0
INSERT
  5
400
  8
标注
  2
*U71
 10
0.0
 20
0.0
 30
0.0
  0
POINT
  5
401
  8
DEFPOINTS
 62
     0
 10
-1563.8412548046119
 20
-935.03493547823109
 30
0.0
  0
POINT
  5
402
  8
DEFPOINTS
 62
     0
 10
-1563.841254804614
 20
-1341.03493547823
 30
0.0
  0
POINT
  5
403
  8
DEFPOINTS
 62
     0
 10
-1336.570385260658
 20
-1341.03493547823
 30
0.0
  0
ENDBLK
  5
404
  8
0
  0
BLOCK
  8
0
  2
*U71
 70
     1
 10
0.0
 20
0.0
 30
0.0
  3
*U71
  1

  0
TEXT
  5
1A67
  8
标注
 62
     3
 10
-1326.570385260658
 20
-1209.7016021448981
 30
0.0
 40
20.0
  1
406 [16"]
 50
90.0
  0
ENDBLK
  5
1A69
  8
0
  0
BLOCK
  8
0
  2
*D72
 70
     1
 10
0.0
 20
0.0
 30
0.0
  3
*D72
  1

  0
LINE
  5
407
  8
标注
 62
     3
 10
-1486.4662548046119
 20
-909.63493547823043
 30
0.0
 11
-1262.4200706673139
 21
-909.63493547823043
 31
0.0
  0
LINE
  5
408
  8
标注
 62
     3
 10
-1486.4662548046119
 20
-1366.43493547823
 30
0.0
 11
-1262.4200706673139
 21
-1366.43493547823
 31
0.0
  0
LINE
  5
409
  8
标注
 62
     3
 10
-1270.4200706673139
 20
-931.63493547823032
 30
0.0
 11
-1270.4200706673139
 21
-1076.002491354222
 31
0.0
  0
LINE
  5
40A
  8
标注
 62
     3
 10
-1270.4200706673139
 20
-1344.43493547823
 30
0.0
 11
-1270.4200706673139
 21
-1200.067379602239
 31
0.0
  0
SOLID
  5
40B
  8
标注
 62
     3
 10
-1274.0867373339811
 20
-931.63493547823032
 30
0.0
 11
-1266.7534040006481
 21
-931.63493547823032
 31
0.0
 12
-1270.4200706673139
 22
-909.63493547823043
 32
0.0
 13
-1270.4200706673139
 23
-909.63493547823043
 33
0.0
  0
SOLID
  5
40C
  8
标注
 62
     3
 10
-1274.0867373339811
 20
-1344.43493547823
 30
0.0
 11
-1266.7534040006481
 21
-1344.43493547823
 31
0.0
 12
-1270.4200706673139
 22
-1366.43493547823
 32
0.0
 13
-1270.4200706673139
 23
-1366.43493547823
 33
0.0
  0
INSERT
  5
40D
  8
标注
  2
*U73
 10
0.0
 20
0.0
 30
0.0
  0
POINT
  5
40E
  8
DEFPOINTS
 62
     0
 10
-1511.4662548046119
 20
-909.63493547823043
 30
0.0
  0
POINT
  5
40F
  8
DEFPOINTS
 62
     0
 10
-1511.4662548046119
 20
-1366.43493547823
 30
0.0
  0
POINT
  5
410
  8
DEFPOINTS
 62
     0
 10
-1270.4200706673139
 20
-1366.43493547823
 30
0.0
  0
ENDBLK
  5
411
  8
0
  0
BLOCK
  8
0
  2
*U73
 70
     1
 10
0.0
 20
0.0
 30
0.0
  3
*U73
  1

  0
TEXT
  5
1A6B
  8
标注
 62
     3
 10
-1260.4200706673139
 20
-1211.3682688115639
 30
0.0
 40
20.0
  1
457 [18"]
 50
90.0
  0
ENDBLK
  5
1A6D
  8
0
  0
BLOCK
  8
0
  2
*D74
 70
     1
 10
0.0
 20
0.0
 30
0.0
  3
*D74
  1

  0
LINE
  5
414
  8
标注
 62
     3
 10
-1696.8412548046119
 20
-1163.65993547823
 30
0.0
 11
-1696.8412548046119
 21
-1429.2836791343909
 31
0.0
  0
LINE
  5
415
  8
标注
 62
     3
 10
-1430.8412548046119
 20
-1163.034935478232
 30
0.0
 11
-1430.8412548046119
 21
-1429.2836791343909
 31
0.0
  0
LINE
  5
416
  8
标注
 62
     3
 10
-1674.8412548046119
 20
-1421.2836791343909
 30
0.0
 11
-1648.3466621586131
 21
-1421.2836791343909
 31
0.0
  0
LINE
  5
417
  8
标注
 62
     3
 10
-1452.8412548046119
 20
-1421.2836791343909
 30
0.0
 11
-1479.335847450611
 21
-1421.2836791343909
 31
0.0
  0
SOLID
  5
418
  8
标注
 62
     3
 10
-1674.8412548046119
 20
-1417.617012467724
 30
0.0
 11
-1674.8412548046119
 21
-1424.950345801057
 31
0.0
 12
-1696.8412548046119
 22
-1421.2836791343909
 32
0.0
 13
-1696.8412548046119
 23
-1421.2836791343909
 33
0.0
  0
SOLID
  5
419
  8
标注
 62
     3
 10
-1452.8412548046119
 20
-1417.617012467724
 30
0.0
 11
-1452.8412548046119
 21
-1424.950345801057
 31
0.0
 12
-1430.8412548046119
 22
-1421.2836791343909
 32
0.0
 13
-1430.8412548046119
 23
-1421.2836791343909
 33
0.0
  0
INSERT
  5
41A
  8
标注
  2
*U75
 10
0.0
 20
0.0
 30
0.0
  0
POINT
  5
41B
  8
DEFPOINTS
 62
     0
 10
-1696.8412548046119
 20
-1138.65993547823
 30
0.0
  0
POINT
  5
41C
  8
DEFPOINTS
 62
     0
 10
-1430.8412548046119
 20
-1138.0349354782311
 30
0.0
  0
POINT
  5
41D
  8
DEFPOINTS
 62
     0
 10
-1430.8412548046119
 20
-1421.2836791343909
 30
0.0
  0
ENDBLK
  5
41E
  8
0
  0
BLOCK
  8
0
  2
*U75
 70
     1
 10
0.0
 20
0.0
 30
0.0
  3
*U75
  1

  0
TEXT
  5
1A6F
  8
标注
 62
     3
 10
-1672.174588137945
 20
-1431.2836791343909
 30
0.0
 40
20.0
  1
266 [10 1/2"]
  0
ENDBLK
  5
1A71
  8
0
  0
BLOCK
  8
0
  2
*D76
 70
     1
 10
0.0
 20
0.0
 30
0.0
  3
*D76
  1

  0
LINE
  5
421
  8
标注
 62
     3
 10
-1730.041254804612
 20
-1266.03493547823
 30
0.0
 11
-1730.041254804612
 21
-1428.4769369124381
 31
0.0
  0
LINE
  5
422
  8
标注
 62
     3
 10
-2180.0412548046129
 20
-1266.03493547823
 30
0.0
 11
-2180.0412548046129
 21
-1428.4769369124381
 31
0.0
  0
LINE
  5
423
  8
标注
 62
     3
 10
-1752.0412548046129
 20
-1420.4769369124381
 30
0.0
 11
-1870.4493297865879
 21
-1420.4769369124381
 31
0.0
  0
LINE
  5
424
  8
标注
 62
     3
 10
-2158.0412548046129
 20
-1420.4769369124381
 30
0.0
 11
-2039.633179822637
 21
-1420.4769369124381
 31
0.0
  0
SOLID
  5
425
  8
标注
 62
     3
 10
-1752.0412548046129
 20
-1416.8102702457711
 30
0.0
 11
-1752.0412548046129
 21
-1424.143603579105
 31
0.0
 12
-1730.041254804612
 22
-1420.4769369124381
 32
0.0
 13
-1730.041254804612
 23
-1420.4769369124381
 33
0.0
  0
SOLID
  5
426
  8
标注
 62
     3
 10
-2158.0412548046129
 20
-1416.8102702457711
 30
0.0
 11
-2158.0412548046129
 21
-1424.143603579105
 31
0.0
 12
-2180.0412548046129
 22
-1420.4769369124381
 32
0.0
 13
-2180.0412548046129
 23
-1420.4769369124381
 33
0.0
  0
INSERT
  5
427
  8
标注
  2
*U77
 10
0.0
 20
0.0
 30
0.0
  0
POINT
  5
428
  8
DEFPOINTS
 62
     0
 10
-1730.041254804612
 20
-1241.03493547823
 30
0.0
  0
POINT
  5
429
  8
DEFPOINTS
 62
     0
 10
-2180.0412548046129
 20
-1241.03493547823
 30
0.0
  0
POINT
  5
42A
  8
DEFPOINTS
 62
     0
 10
-2180.0412548046129
 20
-1420.4769369124381
 30
0.0
  0
ENDBLK
  5
42B
  8
0
  0
BLOCK
  8
0
  2
*U77
 70
     1
 10
0.0
 20
0.0
 30
0.0
  3
*U77
  1

  0
TEXT
  5
1A73
  8
标注
 62
     3
 10
-2066.7079214712799
 20
-1430.4769369124381
 30
0.0
 40
20.0
  1
450 [17 3/4"]
  0
ENDBLK
  5
1A75
  8
0
  0
BLOCK
  8
0
  2
*D78
 70
     1
 10
0.0
 20
0.0
 30
0.0
  3
*D78
  1

  0
LINE
  5
42E
  8
标注
 62
     3
 10
-2206.0662548046139
 20
-1266.03493547823
 30
0.0
 11
-2206.0662548046139
 21
-1482.0443746498779
 31
0.0
  0
LINE
  5
42F
  8
标注
 62
     3
 10
-1406.0662548046109
 20
-1286.03493547823
 30
0.0
 11
-1406.0662548046109
 21
-1482.0443746498779
 31
0.0
  0
LINE
  5
430
  8
标注
 62
     3
 10
-2184.0662548046139
 20
-1474.0443746498779
 30
0.0
 11
-1889.994877731792
 21
-1474.0443746498779
 31
0.0
  0
LINE
  5
431
  8
标注
 62
     3
 10
-1428.0662548046109
 20
-1474.0443746498779
 30
0.0
 11
-1722.1376318774321
 21
-1474.0443746498779
 31
0.0
  0
SOLID
  5
432
  8
标注
 62
     3
 10
-2184.0662548046139
 20
-1470.3777079832121
 30
0.0
 11
-2184.0662548046139
 21
-1477.7110413165451
 31
0.0
 12
-2206.0662548046139
 22
-1474.0443746498779
 32
0.0
 13
-2206.0662548046139
 23
-1474.0443746498779
 33
0.0
  0
SOLID
  5
433
  8
标注
 62
     3
 10
-1428.0662548046109
 20
-1470.3777079832121
 30
0.0
 11
-1428.0662548046109
 21
-1477.7110413165451
 31
0.0
 12
-1406.0662548046109
 22
-1474.0443746498779
 32
0.0
 13
-1406.0662548046109
 23
-1474.0443746498779
 33
0.0
  0
INSERT
  5
434
  8
标注
  2
*U79
 10
0.0
 20
0.0
 30
0.0
  0
POINT
  5
435
  8
DEFPOINTS
 62
     0
 10
-2206.0662548046139
 20
-1241.03493547823
 30
0.0
  0
POINT
  5
436
  8
DEFPOINTS
 62
     0
 10
-1406.0662548046109
 20
-1261.03493547823
 30
0.0
  0
POINT
  5
437
  8
DEFPOINTS
 62
     0
 10
-1406.0662548046109
 20
-1474.0443746498779
 30
0.0
  0
ENDBLK
  5
438
  8
0
  0
BLOCK
  8
0
  2
*U79
 70
     1
 10
0.0
 20
0.0
 30
0.0
  3
*U79
  1

  0
TEXT
  5
1A77
  8
标注
 62
     3
 10
-1912.732921471279
 20
-1484.0443746498779
 30
0.0
 40
20.0
  1
800 [31 1/2"]
  0
ENDBLK
  5
1A79
  8
0
  0
BLOCK
  8
0
  2
*D80
 70
     1
 10
0.0
 20
0.0
 30
0.0
  3
*D80
  1

  0
LINE
  5
43B
  8
标注
 62
     3
 10
-1980.041254804609
 20
-871.0349354782303
 30
0.0
 11
-2286.2006658558648
 21
-871.0349354782303
 31
0.0
  0
LINE
  5
43C
  8
标注
 62
     3
 10
-2105.0412548046129
 20
-1341.03493547823
 30
0.0
 11
-2286.2006658558662
 21
-1341.03493547823
 31
0.0
  0
LINE
  5
43D
  8
标注
 62
     3
 10
-2278.2006658558662
 20
-893.03493547823018
 30
0.0
 11
-2278.2006658558662
 21
-1021.443010460205
 31
0.0
  0
LINE
  5
43E
  8
标注
 62
     3
 10
-2278.2006658558662
 20
-1319.03493547823
 30
0.0
 11
-2278.2006658558662
 21
-1190.626860496254
 31
0.0
  0
SOLID
  5
43F
  8
标注
 62
     3
 10
-2281.8673325225318
 20
-893.03493547823018
 30
0.0
 11
-2274.5339991891992
 21
-893.03493547823018
 31
0.0
 12
-2278.2006658558662
 22
-871.0349354782303
 32
0.0
 13
-2278.2006658558662
 23
-871.0349354782303
 33
0.0
  0
SOLID
  5
440
  8
标注
 62
     3
 10
-2281.8673325225318
 20
-1319.03493547823
 30
0.0
 11
-2274.5339991891992
 21
-1319.03493547823
 31
0.0
 12
-2278.2006658558662
 22
-1341.03493547823
 32
0.0
 13
-2278.2006658558662
 23
-1341.03493547823
 33
0.0
  0
INSERT
  5
441
  8
标注
  2
*U81
 10
0.0
 20
0.0
 30
0.0
  0
POINT
  5
442
  8
DEFPOINTS
 62
     0
 10
-1955.041254804609
 20
-871.0349354782303
 30
0.0
  0
POINT
  5
443
  8
DEFPOINTS
 62
     0
 10
-2080.0412548046129
 20
-1341.03493547823
 30
0.0
  0
POINT
  5
444
  8
DEFPOINTS
 62
     0
 10
-2278.2006658558662
 20
-1341.03493547823
 30
0.0
  0
ENDBLK
  5
445
  8
0
  0
BLOCK
  8
0
  2
*U81
 70
     1
 10
0.0
 20
0.0
 30
0.0
  3
*U81
  1

  0
TEXT
  5
1A7B
  8
标注
 62
     3
 10
-2268.2006658558662
 20
-1214.368268811563
 30
0.0
 40
20.0
  1
470 [18 1/2"]
 50
90.0
  0
ENDBLK
  5
1A7D
  8
0
  0
BLOCK
  8
0
  2
*D82
 70
     1
 10
0.0
 20
0.0
 30
0.0
  3
*D82
  1

  0
LINE
  5
448
  8
标注
 62
     3
 10
-1980.6662548046129
 20
-845.6349354782302
 30
0.0
 11
-2347.4842859260611
 21
-845.6349354782302
 31
0.0
  0
LINE
  5
449
  8
标注
 62
     3
 10
-2105.6662548046129
 20
-1366.434935478231
 30
0.0
 11
-2347.4842859260621
 21
-1366.434935478231
 31
0.0
  0
LINE
  5
44A
  8
标注
 62
     3
 10
-2339.4842859260621
 20
-867.63493547823032
 30
0.0
 11
-2339.4842859260621
 21
-1021.918857612333
 31
0.0
  0
LINE
  5
44B
  8
标注
 62
     3
 10
-2339.4842859260621
 20
-1344.434935478231
 30
0.0
 11
-2339.4842859260621
 21
-1190.1510133441279
 31
0.0
  0
SOLID
  5
44C
  8
标注
 62
     3
 10
-2343.1509525927281
 20
-867.63493547823032
 30
0.0
 11
-2335.8176192593951
 21
-867.63493547823032
 31
0.0
 12
-2339.4842859260621
 22
-845.6349354782302
 32
0.0
 13
-2339.4842859260621
 23
-845.6349354782302
 33
0.0
  0
SOLID
  5
44D
  8
标注
 62
     3
 10
-2343.1509525927281
 20
-1344.434935478231
 30
0.0
 11
-2335.8176192593951
 21
-1344.434935478231
 31
0.0
 12
-2339.4842859260621
 22
-1366.434935478231
 32
0.0
 13
-2339.4842859260621
 23
-1366.434935478231
 33
0.0
  0
INSERT
  5
44E
  8
标注
  2
*U83
 10
0.0
 20
0.0
 30
0.0
  0
POINT
  5
44F
  8
DEFPOINTS
 62
     0
 10
-1955.6662548046129
 20
-845.6349354782302
 30
0.0
  0
POINT
  5
450
  8
DEFPOINTS
 62
     0
 10
-2080.6662548046129
 20
-1366.434935478231
 30
0.0
  0
POINT
  5
451
  8
DEFPOINTS
 62
     0
 10
-2339.4842859260621
 20
-1366.434935478231
 30
0.0
  0
ENDBLK
  5
452
  8
0
  0
BLOCK
  8
0
  2
*U83
 70
     1
 10
0.0
 20
0.0
 30
0.0
  3
*U83
  1

  0
TEXT
  5
1A7F
  8
标注
 62
     3
 10
-2329.4842859260621
 20
-1214.3682688115639
 30
0.0
 40
20.0
  1
521 [20 1/2"]
 50
90.0
  0
ENDBLK
  5
1A81
  8
0
  0
BLOCK
  8
0
  2
*D84
 70
     1
 10
0.0
 20
0.0
 30
0.0
  3
*D84
  1

  0
LINE
  5
743
  8
标注
 10
96.626640552268356
 20
227.670013658806
 30
0.0
 11
98.601171223149279
 21
227.670013658806
 31
0.0
  0
LINE
  5
744
  8
标注
 10
92.281148790491486
 20
220.6608875449765
 30
0.0
 11
98.601171223149279
 21
220.6608875449765
 31
0.0
  0
LINE
  5
745
  8
标注
 10
98.281171223149286
 20
227.02001365880599
 30
0.0
 11
98.281171223149286
 21
224.79878393522461
 31
0.0
  0
LINE
  5
746
  8
标注
 10
98.281171223149286
 20
221.31088754497659
 30
0.0
 11
98.281171223149286
 21
223.5321172685579
 31
0.0
  0
SOLID
  5
747
  8
标注
 10
98.17283788981598
 20
227.02001365880599
 30
0.0
 11
98.389504556482621
 21
227.02001365880599
 31
0.0
 12
98.281171223149286
 22
227.670013658806
 32
0.0
 13
98.281171223149286
 23
227.670013658806
 33
0.0
  0
SOLID
  5
748
  8
标注
 10
98.172837889815938
 20
221.31088754497659
 30
0.0
 11
98.389504556482606
 21
221.31088754497659
 31
0.0
 12
98.281171223149286
 22
220.6608875449765
 32
0.0
 13
98.281171223149286
 23
220.6608875449765
 33
0.0
  0
INSERT
  5
749
  8
标注
  2
*U85
 10
0.0
 20
0.0
 30
0.0
  0
POINT
  5
74A
  8
DEFPOINTS
 62
     0
 10
95.746640552268289
 20
227.670013658806
 30
0.0
  0
POINT
  5
74B
  8
DEFPOINTS
 62
     0
 10
91.401148790491476
 20
220.6608875449765
 30
0.0
  0
POINT
  5
74C
  8
DEFPOINTS
 62
     0
 10
98.281171223149286
 20
220.6608875449765
 30
0.0
  0
ENDBLK
  5
4F7
  8
0
  0
BLOCK
  8
0
  2
*U85
 70
     1
 10
0.0
 20
0.0
 30
0.0
  3
*U85
  1

  0
TEXT
  5
1AA7
  8
标注
 10
98.606171223149246
 20
223.732117268558
 30
0.0
 40
0.65
  1
7"
 50
90.0
  0
ENDBLK
  5
1AA9
  8
0
  0
BLOCK
  8
0
  2
*D86
 70
     1
 10
0.0
 20
0.0
 30
0.0
  3
*D86
  1

  0
LINE
  5
66F
  8
标注
 10
63.370577560142337
 20
226.86410521204201
 30
0.0
 11
61.042145085270221
 21
226.86410521204201
 31
0.0
  0
LINE
  5
670
  8
标注
 10
71.466030680298175
 20
217.86285311395881
 30
0.0
 11
61.042145085270221
 21
217.86285311395881
 31
0.0
  0
LINE
  5
671
  8
标注
 10
61.362145085270221
 20
226.21410521204189
 30
0.0
 11
61.362145085270221
 21
222.9968124963336
 31
0.0
  0
LINE
  5
672
  8
标注
 10
61.362145085270221
 20
218.5128531139589
 30
0.0
 11
61.362145085270221
 21
221.73014582966701
 31
0.0
  0
SOLID
  5
673
  8
标注
 10
61.25381175193688
 20
226.21410521204189
 30
0.0
 11
61.470478418603562
 21
226.21410521204189
 31
0.0
 12
61.362145085270221
 22
226.86410521204201
 32
0.0
 13
61.362145085270221
 23
226.86410521204201
 33
0.0
  0
SOLID
  5
674
  8
标注
 10
61.25381175193688
 20
218.5128531139589
 30
0.0
 11
61.470478418603562
 21
218.5128531139589
 31
0.0
 12
61.362145085270221
 22
217.86285311395881
 32
0.0
 13
61.362145085270221
 23
217.86285311395881
 33
0.0
  0
INSERT
  5
675
  8
标注
  2
*U87
 10
0.0
 20
0.0
 30
0.0
  0
POINT
  5
676
  8
DEFPOINTS
 62
     0
 10
64.250577560142361
 20
226.86410521204189
 30
0.0
  0
POINT
  5
677
  8
DEFPOINTS
 62
     0
 10
72.346030680298185
 20
217.86285311395881
 30
0.0
  0
POINT
  5
678
  8
DEFPOINTS
 62
     0
 10
61.362145085270221
 20
217.86285311395881
 30
0.0
  0
ENDBLK
  5
504
  8
0
  0
BLOCK
  8
0
  2
*U87
 70
     1
 10
0.0
 20
0.0
 30
0.0
  3
*U87
  1

  0
TEXT
  5
1A83
  8
标注
 10
61.687145085270167
 20
221.930145829667
 30
0.0
 40
0.65
  1
9"
 50
90.0
  0
ENDBLK
  5
1A85
  8
0
  0
BLOCK
  8
0
  2
*D88
 70
     1
 10
0.0
 20
0.0
 30
0.0
  3
*D88
  1

  0
LINE
  5
72F
  8
标注
 10
90.415026379039901
 20
206.14367634492311
 30
0.0
 11
98.802698408329434
 21
206.14367634492311
 31
0.0
  0
LINE
  5
730
  8
标注
 10
90.415026379039787
 20
190.1594243764192
 30
0.0
 11
98.802698408329434
 21
190.1594243764192
 31
0.0
  0
LINE
  5
731
  8
标注
 10
98.482698408329426
 20
205.4936763449231
 30
0.0
 11
98.482698408329426
 21
199.0015503606711
 31
0.0
  0
LINE
  5
732
  8
标注
 10
98.482698408329426
 20
190.80942437641909
 30
0.0
 11
98.482698408329426
 21
197.30155036067109
 31
0.0
  0
SOLID
  5
733
  8
标注
 10
98.374365074996106
 20
205.4936763449231
 30
0.0
 11
98.591031741662775
 21
205.4936763449231
 31
0.0
 12
98.482698408329426
 22
206.14367634492311
 32
0.0
 13
98.482698408329426
 23
206.14367634492311
 33
0.0
  0
SOLID
  5
734
  8
标注
 10
98.374365074996106
 20
190.80942437641909
 30
0.0
 11
98.591031741662775
 21
190.80942437641909
 31
0.0
 12
98.482698408329426
 22
190.1594243764192
 32
0.0
 13
98.482698408329426
 23
190.1594243764192
 33
0.0
  0
INSERT
  5
735
  8
标注
  2
*U89
 10
0.0
 20
0.0
 30
0.0
  0
POINT
  5
736
  8
DEFPOINTS
 62
     0
 10
89.535026379039891
 20
206.14367634492311
 30
0.0
  0
POINT
  5
737
  8
DEFPOINTS
 62
     0
 10
89.535026379039778
 20
190.1594243764192
 30
0.0
  0
POINT
  5
738
  8
DEFPOINTS
 62
     0
 10
98.482698408329426
 20
190.1594243764192
 30
0.0
  0
ENDBLK
  5
511
  8
0
  0
BLOCK
  8
0
  2
*U89
 70
     1
 10
0.0
 20
0.0
 30
0.0
  3
*U89
  1

  0
TEXT
  5
1A9F
  8
标注
 10
98.807698408329415
 20
197.5015503606709
 30
0.0
 40
0.65
  1
16"
 50
90.0
  0
ENDBLK
  5
1AA1
  8
0
  0
BLOCK
  8
0
  2
*D90
 70
     1
 10
0.0
 20
0.0
 30
0.0
  3
*D90
  1

  0
LINE
  5
725
  8
标注
 10
92.477034253055635
 20
207.14367634492311
 30
0.0
 11
101.4070415025555
 21
207.14367634492311
 31
0.0
  0
LINE
  5
726
  8
标注
 10
92.477034253055635
 20
189.1594243764192
 30
0.0
 11
101.4070415025555
 21
189.1594243764192
 31
0.0
  0
LINE
  5
727
  8
标注
 10
101.08704150255539
 20
206.4936763449231
 30
0.0
 11
101.08704150255539
 21
199.0015503606711
 31
0.0
  0
LINE
  5
728
  8
标注
 10
101.08704150255539
 20
189.80942437641909
 30
0.0
 11
101.08704150255539
 21
197.3015503606712
 31
0.0
  0
SOLID
  5
729
  8
标注
 10
100.9787081692221
 20
206.4936763449231
 30
0.0
 11
101.1953748358888
 21
206.4936763449231
 31
0.0
 12
101.08704150255539
 22
207.14367634492311
 32
0.0
 13
101.08704150255539
 23
207.14367634492311
 33
0.0
  0
SOLID
  5
72A
  8
标注
 10
100.9787081692221
 20
189.80942437641909
 30
0.0
 11
101.1953748358888
 21
189.80942437641909
 31
0.0
 12
101.08704150255539
 22
189.1594243764192
 32
0.0
 13
101.08704150255539
 23
189.1594243764192
 33
0.0
  0
INSERT
  5
72B
  8
标注
  2
*U91
 10
0.0
 20
0.0
 30
0.0
  0
POINT
  5
72C
  8
DEFPOINTS
 62
     0
 10
91.597034253055654
 20
207.14367634492311
 30
0.0
  0
POINT
  5
72D
  8
DEFPOINTS
 62
     0
 10
91.597034253055654
 20
189.1594243764192
 30
0.0
  0
POINT
  5
72E
  8
DEFPOINTS
 62
     0
 10
101.08704150255539
 20
189.1594243764192
 30
0.0
  0
ENDBLK
  5
51E
  8
0
  0
BLOCK
  8
0
  2
*U91
 70
     1
 10
0.0
 20
0.0
 30
0.0
  3
*U91
  1

  0
TEXT
  5
1A9B
  8
标注
 10
101.4120415025554
 20
197.50155036067119
 30
0.0
 40
0.65
  1
18"
 50
90.0
  0
ENDBLK
  5
1A9D
  8
0
  0
BLOCK
  8
0
  2
*D92
 70
     1
 10
0.0
 20
0.0
 30
0.0
  3
*D92
  1

  0
LINE
  5
71B
  8
标注
 10
84.298805906599
 20
197.24694406145841
 30
0.0
 11
84.298805906599
 21
186.68002501987741
 31
0.0
  0
LINE
  5
71C
  8
标注
 10
94.771246851480782
 20
197.27155036067111
 30
0.0
 11
94.771246851480782
 21
186.68002501987741
 31
0.0
  0
LINE
  5
71D
  8
标注
 10
84.948805906599006
 20
187.0000250198774
 30
0.0
 11
87.547526379039894
 21
187.0000250198774
 31
0.0
  0
LINE
  5
71E
  8
标注
 10
94.121246851480777
 20
187.0000250198774
 30
0.0
 11
91.522526379039874
 21
187.0000250198774
 31
0.0
  0
SOLID
  5
71F
  8
标注
 10
84.948805906599006
 20
187.1083583532108
 30
0.0
 11
84.948805906599006
 21
186.89169168654411
 31
0.0
 12
84.298805906599
 22
187.0000250198774
 32
0.0
 13
84.298805906599
 23
187.0000250198774
 33
0.0
  0
SOLID
  5
720
  8
标注
 10
94.121246851480777
 20
187.1083583532108
 30
0.0
 11
94.121246851480777
 21
186.89169168654411
 31
0.0
 12
94.771246851480782
 22
187.0000250198774
 32
0.0
 13
94.771246851480782
 23
187.0000250198774
 33
0.0
  0
INSERT
  5
721
  8
标注
  2
*U93
 10
0.0
 20
0.0
 30
0.0
  0
POINT
  5
722
  8
DEFPOINTS
 62
     0
 10
84.298805906599
 20
198.1269440614586
 30
0.0
  0
POINT
  5
723
  8
DEFPOINTS
 62
     0
 10
94.771246851480782
 20
198.15155036067111
 30
0.0
  0
POINT
  5
724
  8
DEFPOINTS
 62
     0
 10
94.771246851480782
 20
187.0000250198774
 30
0.0
  0
ENDBLK
  5
52B
  8
0
  0
BLOCK
  8
0
  2
*U93
 70
     1
 10
0.0
 20
0.0
 30
0.0
  3
*U93
  1

  0
TEXT
  5
1A97
  8
标注
 10
87.747526379039897
 20
186.67502501987741
 30
0.0
 40
0.65
  1
10 1/2"
  0
ENDBLK
  5
1A99
  8
0
  0
BLOCK
  8
0
  2
*D94
 70
     1
 10
0.0
 20
0.0
 30
0.0
  3
*D94
  1

  0
LINE
  5
711
  8
标注
 10
82.991719292425699
 20
193.21643225043479
 30
0.0
 11
82.991719292425699
 21
186.7117865246787
 31
0.0
  0
LINE
  5
712
  8
标注
 10
65.275183859354783
 20
193.21643225043479
 30
0.0
 11
65.275183859354783
 21
186.7117865246787
 31
0.0
  0
LINE
  5
713
  8
标注
 10
82.341719292425694
 20
187.03178652467869
 30
0.0
 11
76.283451575890211
 21
187.03178652467869
 31
0.0
  0
LINE
  5
714
  8
标注
 10
65.925183859354789
 20
187.03178652467869
 30
0.0
 11
71.983451575890243
 21
187.03178652467869
 31
0.0
  0
SOLID
  5
715
  8
标注
 10
82.341719292425694
 20
187.14011985801201
 30
0.0
 11
82.341719292425694
 21
186.9234531913454
 31
0.0
 12
82.991719292425699
 22
187.03178652467869
 32
0.0
 13
82.991719292425699
 23
187.03178652467869
 33
0.0
  0
SOLID
  5
716
  8
标注
 10
65.925183859354789
 20
187.14011985801201
 30
0.0
 11
65.925183859354789
 21
186.9234531913454
 31
0.0
 12
65.275183859354783
 22
187.03178652467869
 32
0.0
 13
65.275183859354783
 23
187.03178652467869
 33
0.0
  0
INSERT
  5
717
  8
标注
  2
*U95
 10
0.0
 20
0.0
 30
0.0
  0
POINT
  5
718
  8
DEFPOINTS
 62
     0
 10
82.991719292425699
 20
194.0964322504349
 30
0.0
  0
POINT
  5
719
  8
DEFPOINTS
 62
     0
 10
65.275183859354783
 20
194.0964322504349
 30
0.0
  0
POINT
  5
71A
  8
DEFPOINTS
 62
     0
 10
65.275183859354783
 20
187.03178652467869
 30
0.0
  0
ENDBLK
  5
538
  8
0
  0
BLOCK
  8
0
  2
*U95
 70
     1
 10
0.0
 20
0.0
 30
0.0
  3
*U95
  1

  0
TEXT
  5
1A93
  8
标注
 10
72.183451575890203
 20
186.70678652467839
 30
0.0
 40
0.65
  1
17 3/4"
  0
ENDBLK
  5
1A95
  8
0
  0
BLOCK
  8
0
  2
*D96
 70
     1
 10
0.0
 20
0.0
 30
0.0
  3
*D96
  1

  0
LINE
  5
707
  8
标注
 10
64.250577560142233
 20
193.21643225043479
 30
0.0
 11
64.250577560142233
 21
184.60283228304721
 31
0.0
  0
LINE
  5
708
  8
标注
 10
95.746640552268289
 20
192.42903067563179
 30
0.0
 11
95.746640552268289
 21
184.60283228304721
 31
0.0
  0
LINE
  5
709
  8
标注
 10
64.900577560142224
 20
184.92283228304709
 30
0.0
 11
77.956942389538611
 21
184.92283228304709
 31
0.0
  0
LINE
  5
70A
  8
标注
 10
95.096640552268312
 20
184.92283228304709
 30
0.0
 11
82.040275722871954
 21
184.92283228304709
 31
0.0
  0
SOLID
  5
70B
  8
标注
 10
64.900577560142224
 20
185.03116561638041
 30
0.0
 11
64.900577560142224
 21
184.81449894971391
 31
0.0
 12
64.250577560142233
 22
184.92283228304709
 32
0.0
 13
64.250577560142233
 23
184.92283228304709
 33
0.0
  0
SOLID
  5
70C
  8
标注
 10
95.096640552268312
 20
185.03116561638041
 30
0.0
 11
95.096640552268312
 21
184.81449894971391
 31
0.0
 12
95.746640552268289
 22
184.92283228304709
 32
0.0
 13
95.746640552268289
 23
184.92283228304709
 33
0.0
  0
INSERT
  5
70D
  8
标注
  2
*U97
 10
0.0
 20
0.0
 30
0.0
  0
POINT
  5
70E
  8
DEFPOINTS
 62
     0
 10
64.250577560142233
 20
194.0964322504349
 30
0.0
  0
POINT
  5
70F
  8
DEFPOINTS
 62
     0
 10
95.746640552268289
 20
193.3090306756317
 30
0.0
  0
POINT
  5
710
  8
DEFPOINTS
 62
     0
 10
95.746640552268289
 20
184.92283228304709
 30
0.0
  0
ENDBLK
  5
545
  8
0
  0
BLOCK
  8
0
  2
*U97
 70
     1
 10
0.0
 20
0.0
 30
0.0
  3
*U97
  1

  0
TEXT
  5
1A8F
  8
标注
 10
78.156942389538614
 20
184.5978322830471
 30
0.0
 40
0.65
  1
31 1/2"
  0
ENDBLK
  5
1A91
  8
0
  0
BLOCK
  8
0
  2
*D98
 70
     1
 10
0.0
 20
0.0
 30
0.0
  3
*D98
  1

  0
LINE
  5
6FD
  8
标注
 10
73.253451575890381
 20
208.66336138429321
 30
0.0
 11
61.090640117179461
 21
208.6633613842933
 31
0.0
  0
LINE
  5
6FE
  8
标注
 10
68.332191733370564
 20
190.1594243764192
 30
0.0
 11
61.090640117179461
 21
190.1594243764192
 31
0.0
  0
LINE
  5
6FF
  8
标注
 10
61.410640117179462
 20
208.0133613842932
 30
0.0
 11
61.410640117179462
 21
201.45305954702289
 31
0.0
  0
LINE
  5
700
  8
标注
 10
61.410640117179462
 20
190.80942437641909
 30
0.0
 11
61.410640117179462
 21
197.3697262136894
 31
0.0
  0
SOLID
  5
701
  8
标注
 10
61.302306783846142
 20
208.0133613842932
 30
0.0
 11
61.51897345051281
 21
208.0133613842932
 31
0.0
 12
61.410640117179462
 22
208.6633613842933
 32
0.0
 13
61.410640117179462
 23
208.6633613842933
 33
0.0
  0
SOLID
  5
702
  8
标注
 10
61.302306783846127
 20
190.80942437641909
 30
0.0
 11
61.518973450512803
 21
190.80942437641909
 31
0.0
 12
61.410640117179462
 22
190.1594243764192
 32
0.0
 13
61.410640117179462
 23
190.1594243764192
 33
0.0
  0
INSERT
  5
703
  8
标注
  2
*U99
 10
0.0
 20
0.0
 30
0.0
  0
POINT
  5
704
  8
DEFPOINTS
 62
     0
 10
74.133451575890376
 20
208.66336138429321
 30
0.0
  0
POINT
  5
705
  8
DEFPOINTS
 62
     0
 10
69.21219173337056
 20
190.1594243764192
 30
0.0
  0
POINT
  5
706
  8
DEFPOINTS
 62
     0
 10
61.410640117179462
 20
190.1594243764192
 30
0.0
  0
ENDBLK
  5
552
  8
0
  0
BLOCK
  8
0
  2
*U99
 70
     1
 10
0.0
 20
0.0
 30
0.0
  3
*U99
  1

  0
TEXT
  5
1A8B
  8
标注
 10
61.735640117179422
 20
197.56972621368951
 30
0.0
 40
0.65
  1
18 1/2"
 50
90.0
  0
ENDBLK
  5
1A8D
  8
0
  0
BLOCK
  8
0
  2
*D100
 70
     1
 10
0.0
 20
0.0
 30
0.0
  3
*D100
  1

  0
LINE
  5
6F3
  8
标注
 10
73.228845276677703
 20
209.66336138429321
 30
0.0
 11
58.67789916953398
 21
209.66336138429321
 31
0.0
  0
LINE
  5
6F4
  8
标注
 10
68.307585434158
 20
189.15942437641911
 30
0.0
 11
58.67789916953398
 21
189.15942437641911
 31
0.0
  0
LINE
  5
6F5
  8
标注
 10
58.99789916953398
 20
209.0133613842932
 30
0.0
 11
58.99789916953398
 21
201.50722621368951
 31
0.0
  0
LINE
  5
6F6
  8
标注
 10
58.99789916953398
 20
189.80942437641909
 30
0.0
 11
58.99789916953398
 21
197.31555954702279
 31
0.0
  0
SOLID
  5
6F7
  8
标注
 10
58.889565836200639
 20
209.0133613842932
 30
0.0
 11
59.1062325028673
 21
209.0133613842932
 31
0.0
 12
58.99789916953398
 22
209.66336138429321
 32
0.0
 13
58.99789916953398
 23
209.66336138429321
 33
0.0
  0
SOLID
  5
6F8
  8
标注
 10
58.889565836200639
 20
189.80942437641909
 30
0.0
 11
59.1062325028673
 21
189.80942437641909
 31
0.0
 12
58.99789916953398
 22
189.15942437641911
 32
0.0
 13
58.99789916953398
 23
189.15942437641911
 33
0.0
  0
INSERT
  5
6F9
  8
标注
  2
*U101
 10
0.0
 20
0.0
 30
0.0
  0
POINT
  5
6FA
  8
DEFPOINTS
 62
     0
 10
74.108845276677698
 20
209.66336138429321
 30
0.0
  0
POINT
  5
6FB
  8
DEFPOINTS
 62
     0
 10
69.187585434157995
 20
189.15942437641911
 30
0.0
  0
POINT
  5
6FC
  8
DEFPOINTS
 62
     0
 10
58.99789916953398
 20
189.15942437641911
 30
0.0
  0
ENDBLK
  5
55F
  8
0
  0
BLOCK
  8
0
  2
*U101
 70
     1
 10
0.0
 20
0.0
 30
0.0
  3
*U101
  1

  0
TEXT
  5
1A87
  8
标注
 10
59.32289916953394
 20
197.5155595470228
 30
0.0
 40
0.65
  1
20 1/2"
 50
90.0
  0
ENDBLK
  5
1A89
  8
0
  0
BLOCK
  8
0
  2
*D102
 70
     1
 10
0.0
 20
0.0
 30
0.0
  3
*D102
  1

  0
LINE
  5
739
  8
标注
 10
63.370577560142337
 20
227.67001365880631
 30
0.0
 11
61.133004644758941
 21
227.67001365880631
 31
0.0
  0
LINE
  5
73A
  8
标注
 10
71.131385010962319
 20
218.6687615607247
 30
0.0
 11
61.133004644758941
 21
218.6687615607247
 31
0.0
  0
LINE
  5
73B
  8
标注
 10
61.453004644758941
 20
227.02001365880631
 30
0.0
 11
61.453004644758941
 21
223.80272094309879
 31
0.0
  0
LINE
  5
73C
  8
标注
 10
61.453004644758941
 20
219.31876156072471
 30
0.0
 11
61.453004644758941
 21
222.5360542764322
 31
0.0
  0
SOLID
  5
73D
  8
标注
 10
61.3446713114256
 20
227.02001365880631
 30
0.0
 11
61.561337978092283
 21
227.02001365880631
 31
0.0
 12
61.453004644758941
 22
227.67001365880631
 32
0.0
 13
61.453004644758941
 23
227.67001365880631
 33
0.0
  0
SOLID
  5
73E
  8
标注
 10
61.3446713114256
 20
219.31876156072471
 30
0.0
 11
61.561337978092283
 21
219.31876156072471
 31
0.0
 12
61.453004644758941
 22
218.6687615607247
 32
0.0
 13
61.453004644758941
 23
218.6687615607247
 33
0.0
  0
INSERT
  5
73F
  8
标注
  2
*U103
 10
0.0
 20
0.0
 30
0.0
  0
POINT
  5
740
  8
DEFPOINTS
 62
     0
 10
64.250577560142361
 20
227.67001365880631
 30
0.0
  0
POINT
  5
741
  8
DEFPOINTS
 62
     0
 10
72.011385010962343
 20
218.6687615607247
 30
0.0
  0
POINT
  5
742
  8
DEFPOINTS
 62
     0
 10
61.453004644758941
 20
218.6687615607247
 30
0.0
  0
ENDBLK
  5
6BD
  8
0
  0
BLOCK
  8
0
  2
*U103
 70
     1
 10
0.0
 20
0.0
 30
0.0
  3
*U103
  1

  0
TEXT
  5
1AA3
  8
标注
 10
61.778004644758902
 20
222.73605427643221
 30
0.0
 40
0.65
  1
9"
 50
90.0
  0
ENDBLK
  5
1AA5
  8
0
  0
BLOCK
  8
0
  2
*D104
 70
     1
 10
0.0
 20
0.0
 30
0.0
  3
*D104
  1

  0
LINE
  5
76C
  8
标注
 10
90.415026379039901
 20
206.14367634492311
 30
0.0
 11
98.802698408329434
 21
206.14367634492311
 31
0.0
  0
LINE
  5
76D
  8
标注
 10
90.415026379039787
 20
190.1594243764192
 30
0.0
 11
98.802698408329434
 21
190.1594243764192
 31
0.0
  0
LINE
  5
76E
  8
标注
 10
98.482698408329426
 20
205.4936763449231
 30
0.0
 11
98.482698408329426
 21
199.0015503606711
 31
0.0
  0
LINE
  5
76F
  8
标注
 10
98.482698408329426
 20
190.80942437641909
 30
0.0
 11
98.482698408329426
 21
197.30155036067109
 31
0.0
  0
SOLID
  5
770
  8
标注
 10
98.374365074996106
 20
205.4936763449231
 30
0.0
 11
98.591031741662775
 21
205.4936763449231
 31
0.0
 12
98.482698408329426
 22
206.14367634492311
 32
0.0
 13
98.482698408329426
 23
206.14367634492311
 33
0.0
  0
SOLID
  5
771
  8
标注
 10
98.374365074996106
 20
190.80942437641909
 30
0.0
 11
98.591031741662775
 21
190.80942437641909
 31
0.0
 12
98.482698408329426
 22
190.1594243764192
 32
0.0
 13
98.482698408329426
 23
190.1594243764192
 33
0.0
  0
INSERT
  5
772
  8
标注
  2
*U105
 10
0.0
 20
0.0
 30
0.0
  0
POINT
  5
773
  8
DEFPOINTS
 62
     0
 10
89.535026379039891
 20
206.14367634492311
 30
0.0
  0
POINT
  5
774
  8
DEFPOINTS
 62
     0
 10
89.535026379039778
 20
190.1594243764192
 30
0.0
  0
POINT
  5
775
  8
DEFPOINTS
 62
     0
 10
98.482698408329426
 20
190.1594243764192
 30
0.0
  0
ENDBLK
  5
776
  8
0
  0
BLOCK
  8
0
  2
*U105
 70
     1
 10
0.0
 20
0.0
 30
0.0
  3
*U105
  1

  0
TEXT
  5
1AAB
  8
标注
 10
98.807698408329415
 20
197.5015503606709
 30
0.0
 40
0.65
  1
16"
 50
90.0
  0
ENDBLK
  5
1AAD
  8
0
  0
BLOCK
  8
0
  2
*D106
 70
     1
 10
0.0
 20
0.0
 30
0.0
  3
*D106
  1

  0
LINE
  5
779
  8
标注
 10
92.477034253055635
 20
207.14367634492311
 30
0.0
 11
101.4070415025555
 21
207.14367634492311
 31
0.0
  0
LINE
  5
77A
  8
标注
 10
92.477034253055635
 20
189.1594243764192
 30
0.0
 11
101.4070415025555
 21
189.1594243764192
 31
0.0
  0
LINE
  5
77B
  8
标注
 10
101.08704150255539
 20
206.4936763449231
 30
0.0
 11
101.08704150255539
 21
199.0015503606711
 31
0.0
  0
LINE
  5
77C
  8
标注
 10
101.08704150255539
 20
189.80942437641909
 30
0.0
 11
101.08704150255539
 21
197.3015503606712
 31
0.0
  0
SOLID
  5
77D
  8
标注
 10
100.9787081692221
 20
206.4936763449231
 30
0.0
 11
101.1953748358888
 21
206.4936763449231
 31
0.0
 12
101.08704150255539
 22
207.14367634492311
 32
0.0
 13
101.08704150255539
 23
207.14367634492311
 33
0.0
  0
SOLID
  5
77E
  8
标注
 10
100.9787081692221
 20
189.80942437641909
 30
0.0
 11
101.1953748358888
 21
189.80942437641909
 31
0.0
 12
101.08704150255539
 22
189.1594243764192
 32
0.0
 13
101.08704150255539
 23
189.1594243764192
 33
0.0
  0
INSERT
  5
77F
  8
标注
  2
*U107
 10
0.0
 20
0.0
 30
0.0
  0
POINT
  5
780
  8
DEFPOINTS
 62
     0
 10
91.597034253055654
 20
207.14367634492311
 30
0.0
  0
POINT
  5
781
  8
DEFPOINTS
 62
     0
 10
91.597034253055654
 20
189.1594243764192
 30
0.0
  0
POINT
  5
782
  8
DEFPOINTS
 62
     0
 10
101.08704150255539
 20
189.1594243764192
 30
0.0
  0
ENDBLK
  5
783
  8
0
  0
BLOCK
  8
0
  2
*U107
 70
     1
 10
0.0
 20
0.0
 30
0.0
  3
*U107
  1

  0
TEXT
  5
1AAF
  8
标注
 10
101.4120415025554
 20
197.50155036067119
 30
0.0
 40
0.65
  1
18"
 50
90.0
  0
ENDBLK
  5
1AB1
  8
0
  0
BLOCK
  8
0
  2
*D108
 70
     1
 10
0.0
 20
0.0
 30
0.0
  3
*D108
  1

  0
LINE
  5
786
  8
标注
 10
84.298805906599
 20
197.24694406145841
 30
0.0
 11
84.298805906599
 21
186.68002501987741
 31
0.0
  0
LINE
  5
787
  8
标注
 10
94.771246851480782
 20
197.27155036067111
 30
0.0
 11
94.771246851480782
 21
186.68002501987741
 31
0.0
  0
LINE
  5
788
  8
标注
 10
84.948805906599006
 20
187.0000250198774
 30
0.0
 11
87.547526379039894
 21
187.0000250198774
 31
0.0
  0
LINE
  5
789
  8
标注
 10
94.121246851480777
 20
187.0000250198774
 30
0.0
 11
91.522526379039874
 21
187.0000250198774
 31
0.0
  0
SOLID
  5
78A
  8
标注
 10
84.948805906599006
 20
187.1083583532108
 30
0.0
 11
84.948805906599006
 21
186.89169168654411
 31
0.0
 12
84.298805906599
 22
187.0000250198774
 32
0.0
 13
84.298805906599
 23
187.0000250198774
 33
0.0
  0
SOLID
  5
78B
  8
标注
 10
94.121246851480777
 20
187.1083583532108
 30
0.0
 11
94.121246851480777
 21
186.89169168654411
 31
0.0
 12
94.771246851480782
 22
187.0000250198774
 32
0.0
 13
94.771246851480782
 23
187.0000250198774
 33
0.0
  0
INSERT
  5
78C
  8
标注
  2
*U109
 10
0.0
 20
0.0
 30
0.0
  0
POINT
  5
78D
  8
DEFPOINTS
 62
     0
 10
84.298805906599
 20
198.1269440614586
 30
0.0
  0
POINT
  5
78E
  8
DEFPOINTS
 62
     0
 10
94.771246851480782
 20
198.15155036067111
 30
0.0
  0
POINT
  5
78F
  8
DEFPOINTS
 62
     0
 10
94.771246851480782
 20
187.0000250198774
 30
0.0
  0
ENDBLK
  5
790
  8
0
  0
BLOCK
  8
0
  2
*U109
 70
     1
 10
0.0
 20
0.0
 30
0.0
  3
*U109
  1

  0
TEXT
  5
1AB3
  8
标注
 10
87.747526379039897
 20
186.67502501987741
 30
0.0
 40
0.65
  1
10 1/2"
  0
ENDBLK
  5
1AB5
  8
0
  0
BLOCK
  8
0
  2
*D110
 70
     1
 10
0.0
 20
0.0
 30
0.0
  3
*D110
  1

  0
LINE
  5
793
  8
标注
 10
82.991719292425699
 20
193.21643225043479
 30
0.0
 11
82.991719292425699
 21
186.7117865246787
 31
0.0
  0
LINE
  5
794
  8
标注
 10
65.275183859354783
 20
193.21643225043479
 30
0.0
 11
65.275183859354783
 21
186.7117865246787
 31
0.0
  0
LINE
  5
795
  8
标注
 10
82.341719292425694
 20
187.03178652467869
 30
0.0
 11
76.283451575890211
 21
187.03178652467869
 31
0.0
  0
LINE
  5
796
  8
标注
 10
65.925183859354789
 20
187.03178652467869
 30
0.0
 11
71.983451575890243
 21
187.03178652467869
 31
0.0
  0
SOLID
  5
797
  8
标注
 10
82.341719292425694
 20
187.14011985801201
 30
0.0
 11
82.341719292425694
 21
186.9234531913454
 31
0.0
 12
82.991719292425699
 22
187.03178652467869
 32
0.0
 13
82.991719292425699
 23
187.03178652467869
 33
0.0
  0
SOLID
  5
798
  8
标注
 10
65.925183859354789
 20
187.14011985801201
 30
0.0
 11
65.925183859354789
 21
186.9234531913454
 31
0.0
 12
65.275183859354783
 22
187.03178652467869
 32
0.0
 13
65.275183859354783
 23
187.03178652467869
 33
0.0
  0
INSERT
  5
799
  8
标注
  2
*U111
 10
0.0
 20
0.0
 30
0.0
  0
POINT
  5
79A
  8
DEFPOINTS
 62
     0
 10
82.991719292425699
 20
194.0964322504349
 30
0.0
  0
POINT
  5
79B
  8
DEFPOINTS
 62
     0
 10
65.275183859354783
 20
194.0964322504349
 30
0.0
  0
POINT
  5
79C
  8
DEFPOINTS
 62
     0
 10
65.275183859354783
 20
187.03178652467869
 30
0.0
  0
ENDBLK
  5
79D
  8
0
  0
BLOCK
  8
0
  2
*U111
 70
     1
 10
0.0
 20
0.0
 30
0.0
  3
*U111
  1

  0
TEXT
  5
1AB7
  8
标注
 10
72.183451575890203
 20
186.70678652467839
 30
0.0
 40
0.65
  1
17 3/4"
  0
ENDBLK
  5
1AB9
  8
0
  0
BLOCK
  8
0
  2
*D112
 70
     1
 10
0.0
 20
0.0
 30
0.0
  3
*D112
  1

  0
LINE
  5
7A0
  8
标注
 10
64.250577560142233
 20
193.21643225043479
 30
0.0
 11
64.250577560142233
 21
184.60283228304721
 31
0.0
  0
LINE
  5
7A1
  8
标注
 10
95.746640552268289
 20
192.42903067563179
 30
0.0
 11
95.746640552268289
 21
184.60283228304721
 31
0.0
  0
LINE
  5
7A2
  8
标注
 10
64.900577560142224
 20
184.92283228304709
 30
0.0
 11
77.956942389538611
 21
184.92283228304709
 31
0.0
  0
LINE
  5
7A3
  8
标注
 10
95.096640552268312
 20
184.92283228304709
 30
0.0
 11
82.040275722871954
 21
184.92283228304709
 31
0.0
  0
SOLID
  5
7A4
  8
标注
 10
64.900577560142224
 20
185.03116561638041
 30
0.0
 11
64.900577560142224
 21
184.81449894971391
 31
0.0
 12
64.250577560142233
 22
184.92283228304709
 32
0.0
 13
64.250577560142233
 23
184.92283228304709
 33
0.0
  0
SOLID
  5
7A5
  8
标注
 10
95.096640552268312
 20
185.03116561638041
 30
0.0
 11
95.096640552268312
 21
184.81449894971391
 31
0.0
 12
95.746640552268289
 22
184.92283228304709
 32
0.0
 13
95.746640552268289
 23
184.92283228304709
 33
0.0
  0
INSERT
  5
7A6
  8
标注
  2
*U113
 10
0.0
 20
0.0
 30
0.0
  0
POINT
  5
7A7
  8
DEFPOINTS
 62
     0
 10
64.250577560142233
 20
194.0964322504349
 30
0.0
  0
POINT
  5
7A8
  8
DEFPOINTS
 62
     0
 10
95.746640552268289
 20
193.3090306756317
 30
0.0
  0
POINT
  5
7A9
  8
DEFPOINTS
 62
     0
 10
95.746640552268289
 20
184.92283228304709
 30
0.0
  0
ENDBLK
  5
7AA
  8
0
  0
BLOCK
  8
0
  2
*U113
 70
     1
 10
0.0
 20
0.0
 30
0.0
  3
*U113
  1

  0
TEXT
  5
1ABB
  8
标注
 10
78.156942389538614
 20
184.5978322830471
 30
0.0
 40
0.65
  1
31 1/2"
  0
ENDBLK
  5
1ABD
  8
0
  0
BLOCK
  8
0
  2
*D114
 70
     1
 10
0.0
 20
0.0
 30
0.0
  3
*D114
  1

  0
LINE
  5
7AD
  8
标注
 10
73.253451575890381
 20
208.66336138429321
 30
0.0
 11
61.090640117179461
 21
208.6633613842933
 31
0.0
  0
LINE
  5
7AE
  8
标注
 10
68.332191733370564
 20
190.1594243764192
 30
0.0
 11
61.090640117179461
 21
190.1594243764192
 31
0.0
  0
LINE
  5
7AF
  8
标注
 10
61.410640117179462
 20
208.0133613842932
 30
0.0
 11
61.410640117179462
 21
201.45305954702289
 31
0.0
  0
LINE
  5
7B0
  8
标注
 10
61.410640117179462
 20
190.80942437641909
 30
0.0
 11
61.410640117179462
 21
197.3697262136894
 31
0.0
  0
SOLID
  5
7B1
  8
标注
 10
61.302306783846142
 20
208.0133613842932
 30
0.0
 11
61.51897345051281
 21
208.0133613842932
 31
0.0
 12
61.410640117179462
 22
208.6633613842933
 32
0.0
 13
61.410640117179462
 23
208.6633613842933
 33
0.0
  0
SOLID
  5
7B2
  8
标注
 10
61.302306783846127
 20
190.80942437641909
 30
0.0
 11
61.518973450512803
 21
190.80942437641909
 31
0.0
 12
61.410640117179462
 22
190.1594243764192
 32
0.0
 13
61.410640117179462
 23
190.1594243764192
 33
0.0
  0
INSERT
  5
7B3
  8
标注
  2
*U115
 10
0.0
 20
0.0
 30
0.0
  0
POINT
  5
7B4
  8
DEFPOINTS
 62
     0
 10
74.133451575890376
 20
208.66336138429321
 30
0.0
  0
POINT
  5
7B5
  8
DEFPOINTS
 62
     0
 10
69.21219173337056
 20
190.1594243764192
 30
0.0
  0
POINT
  5
7B6
  8
DEFPOINTS
 62
     0
 10
61.410640117179462
 20
190.1594243764192
 30
0.0
  0
ENDBLK
  5
7B7
  8
0
  0
BLOCK
  8
0
  2
*U115
 70
     1
 10
0.0
 20
0.0
 30
0.0
  3
*U115
  1

  0
TEXT
  5
1ABF
  8
标注
 10
61.735640117179422
 20
197.56972621368951
 30
0.0
 40
0.65
  1
18 1/2"
 50
90.0
  0
ENDBLK
  5
1AC1
  8
0
  0
BLOCK
  8
0
  2
*D116
 70
     1
 10
0.0
 20
0.0
 30
0.0
  3
*D116
  1

  0
LINE
  5
7BA
  8
标注
 10
73.228845276677703
 20
209.66336138429321
 30
0.0
 11
58.67789916953398
 21
209.66336138429321
 31
0.0
  0
LINE
  5
7BB
  8
标注
 10
68.307585434158
 20
189.15942437641911
 30
0.0
 11
58.67789916953398
 21
189.15942437641911
 31
0.0
  0
LINE
  5
7BC
  8
标注
 10
58.99789916953398
 20
209.0133613842932
 30
0.0
 11
58.99789916953398
 21
201.50722621368951
 31
0.0
  0
LINE
  5
7BD
  8
标注
 10
58.99789916953398
 20
189.80942437641909
 30
0.0
 11
58.99789916953398
 21
197.31555954702279
 31
0.0
  0
SOLID
  5
7BE
  8
标注
 10
58.889565836200639
 20
209.0133613842932
 30
0.0
 11
59.1062325028673
 21
209.0133613842932
 31
0.0
 12
58.99789916953398
 22
209.66336138429321
 32
0.0
 13
58.99789916953398
 23
209.66336138429321
 33
0.0
  0
SOLID
  5
7BF
  8
标注
 10
58.889565836200639
 20
189.80942437641909
 30
0.0
 11
59.1062325028673
 21
189.80942437641909
 31
0.0
 12
58.99789916953398
 22
189.15942437641911
 32
0.0
 13
58.99789916953398
 23
189.15942437641911
 33
0.0
  0
INSERT
  5
7C0
  8
标注
  2
*U117
 10
0.0
 20
0.0
 30
0.0
  0
POINT
  5
7C1
  8
DEFPOINTS
 62
     0
 10
74.108845276677698
 20
209.66336138429321
 30
0.0
  0
POINT
  5
7C2
  8
DEFPOINTS
 62
     0
 10
69.187585434157995
 20
189.15942437641911
 30
0.0
  0
POINT
  5
7C3
  8
DEFPOINTS
 62
     0
 10
58.99789916953398
 20
189.15942437641911
 30
0.0
  0
ENDBLK
  5
7C4
  8
0
  0
BLOCK
  8
0
  2
*U117
 70
     1
 10
0.0
 20
0.0
 30
0.0
  3
*U117
  1

  0
TEXT
  5
1AC3
  8
标注
 10
59.32289916953394
 20
197.5155595470228
 30
0.0
 40
0.65
  1
20 1/2"
 50
90.0
  0
ENDBLK
  5
1AC5
  8
0
  0
BLOCK
  8
0
  2
*D118
 70
     1
 10
0.0
 20
0.0
 30
0.0
  3
*D118
  1

  0
LINE
  5
80E
  8
标注
 10
73.180418758057954
 20
169.37998545649859
 30
0.0
 11
58.629472650914217
 21
169.37998545649859
 31
0.0
  0
LINE
  5
80F
  8
标注
 10
68.259158915538251
 20
148.87604844862449
 30
0.0
 11
58.629472650914217
 21
148.87604844862449
 31
0.0
  0
LINE
  5
810
  8
标注
 10
58.949472650914217
 20
168.72998545649861
 30
0.0
 11
58.949472650914217
 21
161.2238502858948
 31
0.0
  0
LINE
  5
811
  8
标注
 10
58.949472650914217
 20
149.52604844862441
 30
0.0
 11
58.949472650914217
 21
157.03218361922819
 31
0.0
  0
SOLID
  5
812
  8
标注
 10
58.84113931758089
 20
168.72998545649861
 30
0.0
 11
59.057805984247558
 21
168.72998545649861
 31
0.0
 12
58.949472650914217
 22
169.37998545649859
 32
0.0
 13
58.949472650914217
 23
169.37998545649859
 33
0.0
  0
SOLID
  5
813
  8
标注
 10
58.84113931758089
 20
149.52604844862441
 30
0.0
 11
59.057805984247558
 21
149.52604844862441
 31
0.0
 12
58.949472650914217
 22
148.87604844862449
 32
0.0
 13
58.949472650914217
 23
148.87604844862449
 33
0.0
  0
INSERT
  5
814
  8
标注
  2
*U119
 10
0.0
 20
0.0
 30
0.0
  0
POINT
  5
815
  8
DEFPOINTS
 62
     0
 10
74.060418758057963
 20
169.37998545649859
 30
0.0
  0
POINT
  5
816
  8
DEFPOINTS
 62
     0
 10
69.13915891553826
 20
148.87604844862449
 30
0.0
  0
POINT
  5
817
  8
DEFPOINTS
 62
     0
 10
58.949472650914217
 20
148.87604844862449
 30
0.0
  0
ENDBLK
  5
819
  8
0
  0
BLOCK
  8
0
  2
*U119
 70
     1
 10
0.0
 20
0.0
 30
0.0
  3
*U119
  1

  0
TEXT
  5
1AC7
  8
标注
 10
59.274472650914191
 20
157.2321836192281
 30
0.0
 40
0.65
  1
20 1/2"
 50
90.0
  0
ENDBLK
  5
1AC9
  8
0
  0
BLOCK
  8
0
  2
*D120
 70
     1
 10
0.0
 20
0.0
 30
0.0
  3
*D120
  1

  0
LINE
  5
81B
  8
标注
 10
73.205025057270618
 20
168.37998545649859
 30
0.0
 11
61.042213598559712
 21
168.37998545649859
 31
0.0
  0
LINE
  5
81C
  8
标注
 10
68.283765214750829
 20
149.87604844862449
 30
0.0
 11
61.042213598559712
 21
149.8760484486246
 31
0.0
  0
LINE
  5
81D
  8
标注
 10
61.362213598559713
 20
167.7299854564985
 30
0.0
 11
61.362213598559713
 21
161.16968361922821
 31
0.0
  0
LINE
  5
81E
  8
标注
 10
61.362213598559713
 20
150.52604844862461
 30
0.0
 11
61.362213598559713
 21
157.08635028589481
 31
0.0
  0
SOLID
  5
81F
  8
标注
 10
61.253880265226393
 20
167.7299854564985
 30
0.0
 11
61.47054693189304
 21
167.7299854564985
 31
0.0
 12
61.362213598559713
 22
168.37998545649859
 32
0.0
 13
61.362213598559713
 23
168.37998545649859
 33
0.0
  0
SOLID
  5
820
  8
标注
 10
61.253880265226393
 20
150.52604844862461
 30
0.0
 11
61.47054693189304
 21
150.52604844862461
 31
0.0
 12
61.362213598559713
 22
149.8760484486246
 32
0.0
 13
61.362213598559713
 23
149.8760484486246
 33
0.0
  0
INSERT
  5
821
  8
标注
  2
*U121
 10
0.0
 20
0.0
 30
0.0
  0
POINT
  5
822
  8
DEFPOINTS
 62
     0
 10
74.085025057270627
 20
168.37998545649859
 30
0.0
  0
POINT
  5
823
  8
DEFPOINTS
 62
     0
 10
69.163765214750811
 20
149.87604844862449
 30
0.0
  0
POINT
  5
824
  8
DEFPOINTS
 62
     0
 10
61.362213598559713
 20
149.8760484486246
 30
0.0
  0
ENDBLK
  5
826
  8
0
  0
BLOCK
  8
0
  2
*U121
 70
     1
 10
0.0
 20
0.0
 30
0.0
  3
*U121
  1

  0
TEXT
  5
1ACB
  8
标注
 10
61.687213598559673
 20
157.28635028589491
 30
0.0
 40
0.65
  1
18 1/2"
 50
90.0
  0
ENDBLK
  5
1ACD
  8
0
  0
BLOCK
  8
0
  2
*D122
 70
     1
 10
0.0
 20
0.0
 30
0.0
  3
*D122
  1

  0
LINE
  5
828
  8
标注
 10
64.20215104152247
 20
152.93305632264031
 30
0.0
 11
64.20215104152247
 21
144.31945635525261
 31
0.0
  0
LINE
  5
829
  8
标注
 10
95.698214033648583
 20
152.14565474783711
 30
0.0
 11
95.698214033648583
 21
144.31945635525261
 31
0.0
  0
LINE
  5
82A
  8
标注
 10
64.85215104152249
 20
144.63945635525241
 30
0.0
 11
77.908515870918862
 21
144.63945635525241
 31
0.0
  0
LINE
  5
82B
  8
标注
 10
95.048214033648549
 20
144.63945635525241
 30
0.0
 11
81.99184920425219
 21
144.63945635525241
 31
0.0
  0
SOLID
  5
82C
  8
标注
 10
64.85215104152249
 20
144.7477896885859
 30
0.0
 11
64.85215104152249
 21
144.53112302191931
 31
0.0
 12
64.20215104152247
 22
144.63945635525241
 32
0.0
 13
64.20215104152247
 23
144.63945635525241
 33
0.0
  0
SOLID
  5
82D
  8
标注
 10
95.048214033648549
 20
144.7477896885859
 30
0.0
 11
95.048214033648549
 21
144.53112302191931
 31
0.0
 12
95.698214033648583
 22
144.63945635525241
 32
0.0
 13
95.698214033648583
 23
144.63945635525241
 33
0.0
  0
INSERT
  5
82E
  8
标注
  2
*U123
 10
0.0
 20
0.0
 30
0.0
  0
POINT
  5
82F
  8
DEFPOINTS
 62
     0
 10
64.20215104152247
 20
153.81305632264031
 30
0.0
  0
POINT
  5
830
  8
DEFPOINTS
 62
     0
 10
95.698214033648583
 20
153.02565474783719
 30
0.0
  0
POINT
  5
831
  8
DEFPOINTS
 62
     0
 10
95.698214033648583
 20
144.63945635525241
 30
0.0
  0
ENDBLK
  5
833
  8
0
  0
BLOCK
  8
0
  2
*U123
 70
     1
 10
0.0
 20
0.0
 30
0.0
  3
*U123
  1

  0
TEXT
  5
1ACF
  8
标注
 10
78.108515870918851
 20
144.3144563552525
 30
0.0
 40
0.65
  1
31 1/2"
  0
ENDBLK
  5
1AD1
  8
0
  0
BLOCK
  8
0
  2
*D124
 70
     1
 10
0.0
 20
0.0
 30
0.0
  3
*D124
  1

  0
LINE
  5
868
  8
标注
 10
82.943292773805965
 20
152.93305632264031
 30
0.0
 11
82.943292773805965
 21
146.42841059688411
 31
0.0
  0
LINE
  5
869
  8
标注
 10
65.226757340735034
 20
152.93305632264031
 30
0.0
 11
65.226757340735034
 21
146.42841059688411
 31
0.0
  0
LINE
  5
86A
  8
标注
 10
82.293292773805973
 20
146.7484105968841
 30
0.0
 11
76.235025057270505
 21
146.7484105968841
 31
0.0
  0
LINE
  5
86B
  8
标注
 10
65.87675734073504
 20
146.7484105968841
 30
0.0
 11
71.935025057270494
 21
146.7484105968841
 31
0.0
  0
SOLID
  5
86C
  8
标注
 10
82.293292773805973
 20
146.85674393021739
 30
0.0
 11
82.293292773805973
 21
146.64007726355081
 31
0.0
 12
82.943292773805965
 22
146.7484105968841
 32
0.0
 13
82.943292773805965
 23
146.7484105968841
 33
0.0
  0
SOLID
  5
86D
  8
标注
 10
65.87675734073504
 20
146.85674393021739
 30
0.0
 11
65.87675734073504
 21
146.64007726355081
 31
0.0
 12
65.226757340735034
 22
146.7484105968841
 32
0.0
 13
65.226757340735034
 23
146.7484105968841
 33
0.0
  0
INSERT
  5
86E
  8
标注
  2
*U125
 10
0.0
 20
0.0
 30
0.0
  0
POINT
  5
86F
  8
DEFPOINTS
 62
     0
 10
82.943292773805965
 20
153.81305632264031
 30
0.0
  0
POINT
  5
870
  8
DEFPOINTS
 62
     0
 10
65.226757340735034
 20
153.81305632264031
 30
0.0
  0
POINT
  5
871
  8
DEFPOINTS
 62
     0
 10
65.226757340735034
 20
146.7484105968841
 30
0.0
  0
ENDBLK
  5
840
  8
0
  0
BLOCK
  8
0
  2
*U125
 70
     1
 10
0.0
 20
0.0
 30
0.0
  3
*U125
  1

  0
TEXT
  5
1ADB
  8
标注
 10
72.135025057270482
 20
146.42341059688411
 30
0.0
 40
0.65
  1
17 3/4"
  0
ENDBLK
  5
1ADD
  8
0
  0
BLOCK
  8
0
  2
*D126
 70
     1
 10
0.0
 20
0.0
 30
0.0
  3
*D126
  1

  0
LINE
  5
842
  8
标注
 10
84.250379387979265
 20
156.9635681336639
 30
0.0
 11
84.250379387979265
 21
146.39664909208281
 31
0.0
  0
LINE
  5
843
  8
标注
 10
94.722820332861033
 20
156.98817443287641
 30
0.0
 11
94.722820332861033
 21
146.39664909208281
 31
0.0
  0
LINE
  5
844
  8
标注
 10
84.900379387979257
 20
146.7166490920828
 30
0.0
 11
87.499099860420131
 21
146.7166490920828
 31
0.0
  0
LINE
  5
845
  8
标注
 10
94.072820332861042
 20
146.7166490920828
 30
0.0
 11
91.474099860420125
 21
146.7166490920828
 31
0.0
  0
SOLID
  5
846
  8
标注
 10
84.900379387979257
 20
146.8249824254161
 30
0.0
 11
84.900379387979257
 21
146.60831575874951
 31
0.0
 12
84.250379387979265
 22
146.7166490920828
 32
0.0
 13
84.250379387979265
 23
146.7166490920828
 33
0.0
  0
SOLID
  5
847
  8
标注
 10
94.072820332861042
 20
146.8249824254161
 30
0.0
 11
94.072820332861042
 21
146.60831575874951
 31
0.0
 12
94.722820332861033
 22
146.7166490920828
 32
0.0
 13
94.722820332861033
 23
146.7166490920828
 33
0.0
  0
INSERT
  5
848
  8
标注
  2
*U127
 10
0.0
 20
0.0
 30
0.0
  0
POINT
  5
849
  8
DEFPOINTS
 62
     0
 10
84.250379387979265
 20
157.84356813366389
 30
0.0
  0
POINT
  5
84A
  8
DEFPOINTS
 62
     0
 10
94.722820332861033
 20
157.86817443287649
 30
0.0
  0
POINT
  5
84B
  8
DEFPOINTS
 62
     0
 10
94.722820332861033
 20
146.7166490920828
 30
0.0
  0
ENDBLK
  5
84D
  8
0
  0
BLOCK
  8
0
  2
*U127
 70
     1
 10
0.0
 20
0.0
 30
0.0
  3
*U127
  1

  0
TEXT
  5
1AD3
  8
标注
 10
87.699099860420134
 20
146.39164909208279
 30
0.0
 40
0.65
  1
10 1/2"
  0
ENDBLK
  5
1AD5
  8
0
  0
BLOCK
  8
0
  2
*D128
 70
     1
 10
0.0
 20
0.0
 30
0.0
  3
*D128
  1

  0
LINE
  5
84F
  8
标注
 10
92.4286077344359
 20
166.86030041712851
 30
0.0
 11
101.35861498393569
 21
166.86030041712851
 31
0.0
  0
LINE
  5
850
  8
标注
 10
92.4286077344359
 20
148.87604844862449
 30
0.0
 11
101.35861498393569
 21
148.87604844862449
 31
0.0
  0
LINE
  5
851
  8
标注
 10
101.0386149839358
 20
166.21030041712851
 30
0.0
 11
101.0386149839357
 21
158.71817443287651
 31
0.0
  0
LINE
  5
852
  8
标注
 10
101.0386149839357
 20
149.52604844862441
 30
0.0
 11
101.0386149839357
 21
157.01817443287641
 31
0.0
  0
SOLID
  5
853
  8
标注
 10
100.9302816506024
 20
166.21030041712851
 30
0.0
 11
101.14694831726911
 21
166.21030041712851
 31
0.0
 12
101.0386149839358
 22
166.86030041712851
 32
0.0
 13
101.0386149839358
 23
166.86030041712851
 33
0.0
  0
SOLID
  5
854
  8
标注
 10
100.9302816506024
 20
149.52604844862441
 30
0.0
 11
101.14694831726911
 21
149.52604844862441
 31
0.0
 12
101.0386149839357
 22
148.87604844862449
 32
0.0
 13
101.0386149839357
 23
148.87604844862449
 33
0.0
  0
INSERT
  5
855
  8
标注
  2
*U129
 10
0.0
 20
0.0
 30
0.0
  0
POINT
  5
856
  8
DEFPOINTS
 62
     0
 10
91.548607734435919
 20
166.86030041712851
 30
0.0
  0
POINT
  5
857
  8
DEFPOINTS
 62
     0
 10
91.548607734435919
 20
148.87604844862449
 30
0.0
  0
POINT
  5
858
  8
DEFPOINTS
 62
     0
 10
101.0386149839357
 20
148.87604844862449
 30
0.0
  0
ENDBLK
  5
85A
  8
0
  0
BLOCK
  8
0
  2
*U129
 70
     1
 10
0.0
 20
0.0
 30
0.0
  3
*U129
  1

  0
TEXT
  5
1AD7
  8
标注
 10
101.3636149839357
 20
157.21817443287659
 30
0.0
 40
0.65
  1
18"
 50
90.0
  0
ENDBLK
  5
1AD9
  8
0
  0
BLOCK
  8
0
  2
*D130
 70
     1
 10
0.0
 20
0.0
 30
0.0
  3
*D130
  1

  0
LINE
  5
872
  8
标注
 10
90.366599860420166
 20
165.86030041712851
 30
0.0
 11
98.754271889709685
 21
165.86030041712851
 31
0.0
  0
LINE
  5
873
  8
标注
 10
90.366599860420052
 20
149.87604844862449
 30
0.0
 11
98.754271889709685
 21
149.87604844862449
 31
0.0
  0
LINE
  5
874
  8
标注
 10
98.434271889709677
 20
165.21030041712839
 30
0.0
 11
98.434271889709677
 21
158.71817443287651
 31
0.0
  0
LINE
  5
875
  8
标注
 10
98.434271889709677
 20
150.52604844862461
 30
0.0
 11
98.434271889709677
 21
157.01817443287641
 31
0.0
  0
SOLID
  5
876
  8
标注
 10
98.325938556376343
 20
165.21030041712839
 30
0.0
 11
98.542605223043012
 21
165.21030041712839
 31
0.0
 12
98.434271889709677
 22
165.86030041712851
 32
0.0
 13
98.434271889709677
 23
165.86030041712851
 33
0.0
  0
SOLID
  5
877
  8
标注
 10
98.325938556376315
 20
150.52604844862461
 30
0.0
 11
98.542605223043012
 21
150.52604844862461
 31
0.0
 12
98.434271889709677
 22
149.87604844862449
 32
0.0
 13
98.434271889709677
 23
149.87604844862449
 33
0.0
  0
INSERT
  5
878
  8
标注
  2
*U131
 10
0.0
 20
0.0
 30
0.0
  0
POINT
  5
879
  8
DEFPOINTS
 62
     0
 10
89.486599860420128
 20
165.86030041712851
 30
0.0
  0
POINT
  5
87A
  8
DEFPOINTS
 62
     0
 10
89.486599860420057
 20
149.87604844862449
 30
0.0
  0
POINT
  5
87B
  8
DEFPOINTS
 62
     0
 10
98.434271889709677
 20
149.87604844862449
 30
0.0
  0
ENDBLK
  5
867
  8
0
  0
BLOCK
  8
0
  2
*U131
 70
     1
 10
0.0
 20
0.0
 30
0.0
  3
*U131
  1

  0
TEXT
  5
1ADF
  8
标注
 10
98.759271889709638
 20
157.21817443287651
 30
0.0
 40
0.65
  1
16"
 50
90.0
  0
ENDBLK
  5
1AE1
  8
0
  0
BLOCK
  8
0
  2
*D132
 70
     1
 10
0.0
 20
0.0
 30
0.0
  3
*D132
  1

  0
LINE
  5
92B
  8
标注
 10
68.192955671633143
 20
205.7749621877521
 30
0.0
 11
67.753299132183727
 21
206.2537127776414
 31
0.0
  0
INSERT
  5
92C
  8
标注
  2
*U133
 10
0.0
 20
0.0
 30
0.0
  0
SOLID
  5
92D
  8
标注
 10
67.833090897165263
 20
206.3269888675496
 30
0.0
 11
67.673507367202191
 21
206.18043668773319
 31
0.0
 12
67.313642592734297
 22
206.7324633675307
 32
0.0
 13
67.313642592734297
 23
206.7324633675307
 33
0.0
  0
POINT
  5
92E
  8
DEFPOINTS
 62
     0
 10
67.313642592734297
 20
206.7324633675307
 30
0.0
  0
POINT
  5
92F
  8
DEFPOINTS
 62
     0
 10
71.574396457780068
 20
202.09284529470889
 30
0.0
  0
ENDBLK
  5
929
  8
0
  0
BLOCK
  8
0
  2
*U133
 70
     1
 10
0.0
 20
0.0
 30
0.0
  3
*U133
  1

  0
TEXT
  5
1AE3
  8
标注
 10
68.088859311903704
 20
205.4078260442152
 30
0.0
 40
0.65
  1
R6 1/4"
 50
312.5625486775516
  0
ENDBLK
  5
1AE5
  8
0
  0
BLOCK
  8
0
  2
*D134
 70
     1
 10
0.0
 20
0.0
 30
0.0
  3
*D134
  1

  0
LINE
  5
93B
  8
标注
 10
77.740728690444485
 20
206.9809284824648
 30
0.0
 11
77.877019013025091
 21
207.61647938362921
 31
0.0
  0
INSERT
  5
93C
  8
标注
  2
*U135
 10
0.0
 20
0.0
 30
0.0
  0
SOLID
  5
93D
  8
标注
 10
77.771093862831052
 20
207.6391944373926
 30
0.0
 11
77.982944163219187
 21
207.59376432986579
 31
0.0
 12
78.013309335605783
 22
208.25203028479359
 32
0.0
 13
78.013309335605783
 23
208.25203028479359
 33
0.0
  0
POINT
  5
93E
  8
DEFPOINTS
 62
     0
 10
78.013309335605783
 20
208.25203028479359
 30
0.0
  0
POINT
  5
93F
  8
DEFPOINTS
 62
     0
 10
74.13345157589012
 20
190.159424376419
 30
0.0
  0
ENDBLK
  5
939
  8
0
  0
BLOCK
  8
0
  2
*U135
 70
     1
 10
0.0
 20
0.0
 30
0.0
  3
*U135
  1

  0
TEXT
  5
1AE7
  8
标注
 10
77.107966506618013
 20
202.48022318997681
 30
0.0
 40
0.65
  1
R18 1/2"
 50
77.89655112925395
  0
ENDBLK
  5
1AE9
  8
0
  0
BLOCK
  8
0
  2
*D136
 70
     1
 10
0.0
 20
0.0
 30
0.0
  3
*D136
  1

  0
LINE
  5
94B
  8
标注
 10
67.39864779931915
 20
192.1820475119651
 30
0.0
 11
66.95162465283974
 21
191.7101679653521
 31
0.0
  0
INSERT
  5
94C
  8
标注
  2
*U137
 10
0.0
 20
0.0
 30
0.0
  0
SOLID
  5
94D
  8
标注
 10
66.87297806173757
 20
191.78467182309839
 30
0.0
 11
67.030271243941911
 21
191.63566410760541
 31
0.0
 12
66.504601506360345
 22
191.2382884187391
 32
0.0
 13
66.504601506360345
 23
191.2382884187391
 33
0.0
  0
POINT
  5
94E
  8
DEFPOINTS
 62
     0
 10
66.504601506360345
 20
191.2382884187391
 30
0.0
  0
POINT
  5
94F
  8
DEFPOINTS
 62
     0
 10
69.212191733370645
 20
194.0964322504349
 30
0.0
  0
ENDBLK
  5
949
  8
0
  0
BLOCK
  8
0
  2
*U137
 70
     1
 10
0.0
 20
0.0
 30
0.0
  3
*U137
  1

  0
TEXT
  5
1AEB
  8
标注
 10
67.77213315615775
 20
192.10372964537549
 30
0.0
 40
0.65
  1
R3 7/8"
 50
46.549478118728373
  0
ENDBLK
  5
1AED
  8
0
  0
BLOCK
  8
0
  2
*D138
 70
     1
 10
0.0
 20
0.0
 30
0.0
  3
*D138
  1

  0
LINE
  5
95B
  8
标注
 10
80.767324383519394
 20
204.98904753237039
 30
0.0
 11
81.297134117760663
 21
205.3656131249347
 31
0.0
  0
INSERT
  5
95C
  8
标注
  2
*U139
 10
0.0
 20
0.0
 30
0.0
  0
SOLID
  5
95D
  8
标注
 10
81.234373185666627
 20
205.4539147473082
 30
0.0
 11
81.359895049854686
 21
205.2773115025611
 31
0.0
 12
81.826943852001932
 22
205.7421787174988
 32
0.0
 13
81.826943852001932
 23
205.7421787174988
 33
0.0
  0
POINT
  5
95E
  8
DEFPOINTS
 62
     0
 10
81.826943852001932
 20
205.7421787174988
 30
0.0
  0
POINT
  5
95F
  8
DEFPOINTS
 62
     0
 10
76.692506694000187
 20
202.0928452947087
 30
0.0
  0
ENDBLK
  5
959
  8
0
  0
BLOCK
  8
0
  2
*U139
 70
     1
 10
0.0
 20
0.0
 30
0.0
  3
*U139
  1

  0
TEXT
  5
1AEF
  8
标注
 10
77.613730394587165
 20
202.3488827736914
 30
0.0
 40
0.65
  1
R6 1/4"
 50
35.40355035009555
  0
ENDBLK
  5
1AF1
  8
0
  0
BLOCK
  8
0
  2
*D140
 70
     1
 10
0.0
 20
0.0
 30
0.0
  3
*D140
  1

  0
LINE
  5
96B
  8
标注
 10
86.289041132904032
 20
192.05520043640399
 30
0.0
 11
85.830994377744034
 21
191.5940137387563
 31
0.0
  0
INSERT
  5
96C
  8
标注
  2
*U141
 10
0.0
 20
0.0
 30
0.0
  0
SOLID
  5
96D
  8
标注
 10
85.754129928136095
 20
191.67035486461629
 30
0.0
 11
85.907858827352072
 21
191.51767261289621
 31
0.0
 12
85.372947622584121
 22
191.1328270411083
 32
0.0
 13
85.372947622584121
 23
191.1328270411083
 33
0.0
  0
POINT
  5
96E
  8
DEFPOINTS
 62
     0
 10
85.372947622584121
 20
191.1328270411083
 30
0.0
  0
POINT
  5
96F
  8
DEFPOINTS
 62
     0
 10
87.592435230869725
 20
193.36752939191609
 30
0.0
  0
ENDBLK
  5
969
  8
0
  0
BLOCK
  8
0
  2
*U141
 70
     1
 10
0.0
 20
0.0
 30
0.0
  3
*U141
  1

  0
TEXT
  5
1AF3
  8
标注
 10
86.660571944854141
 20
191.9680806581006
 30
0.0
 40
0.65
  1
R3 1/8"
 50
45.195711712000531
  0
ENDBLK
  5
1AF5
  8
0
  0
BLOCK
  8
0
  2
GENAXEH
 70
     0
 10
0.0
 20
0.0
 30
0.0
  3
GENAXEH
  1

  0
LINE
  5
A44
  8
0
 10
-1.0
 20
0.0
 30
0.0
 11
1.0
 21
0.0
 31
0.0
  0
ENDBLK
  5
A46
  8
0
  0
BLOCK
  8
0
  2
*D143
 70
     1
 10
0.0
 20
0.0
 30
0.0
  3
*D143
  1

  0
LINE
  5
F4E
  8
标注
 10
151.27373411218451
 20
213.39814326364149
 30
0.0
 11
156.67065402762799
 21
213.39814326364149
 31
0.0
  0
LINE
  5
F4F
  8
标注
 10
155.53274937368209
 20
220.40601727936021
 30
0.0
 11
156.67065402762799
 21
220.40601727936021
 31
0.0
  0
LINE
  5
F50
  8
标注
 10
156.350654027628
 20
214.04814326364141
 30
0.0
 11
156.350654027628
 21
216.26874693816751
 31
0.0
  0
LINE
  5
F51
  8
标注
 10
156.350654027628
 20
219.75601727936021
 30
0.0
 11
156.350654027628
 21
217.5354136048341
 31
0.0
  0
SOLID
  5
F52
  8
标注
 10
156.2423206942947
 20
214.04814326364141
 30
0.0
 11
156.45898736096129
 21
214.04814326364141
 31
0.0
 12
156.350654027628
 22
213.39814326364149
 32
0.0
 13
156.350654027628
 23
213.39814326364149
 33
0.0
  0
SOLID
  5
F53
  8
标注
 10
156.2423206942947
 20
219.75601727936021
 30
0.0
 11
156.45898736096129
 21
219.75601727936021
 31
0.0
 12
156.350654027628
 22
220.40601727936021
 32
0.0
 13
156.350654027628
 23
220.40601727936021
 33
0.0
  0
INSERT
  5
F54
  8
标注
  2
*U144
 10
0.0
 20
0.0
 30
0.0
  0
POINT
  5
F55
  8
DEFPOINTS
 62
     0
 10
150.3937341121844
 20
213.39814326364149
 30
0.0
  0
POINT
  5
F56
  8
DEFPOINTS
 62
     0
 10
154.6527493736821
 20
220.40601727936021
 30
0.0
  0
POINT
  5
F57
  8
DEFPOINTS
 62
     0
 10
156.350654027628
 20
220.40601727936021
 30
0.0
  0
ENDBLK
  5
ECD
  8
0
  0
BLOCK
  8
0
  2
*U144
 70
     1
 10
0.0
 20
0.0
 30
0.0
  3
*U144
  1

  0
TEXT
  5
1B73
  8
标注
 10
156.67565402762801
 20
216.4687469381675
 30
0.0
 40
0.65
  1
7"
 50
90.0
  0
ENDBLK
  5
1B75
  8
0
  0
BLOCK
  8
0
  2
*D145
 70
     1
 10
0.0
 20
0.0
 30
0.0
  3
*D145
  1

  0
LINE
  5
F58
  8
标注
 10
142.58582023988399
 20
190.8722985615442
 30
0.0
 11
142.58582023988399
 21
185.68142412905101
 31
0.0
  0
LINE
  5
F59
  8
标注
 10
153.7275525233008
 20
190.87229856156449
 30
0.0
 11
153.7275525233008
 21
185.68142412905101
 31
0.0
  0
LINE
  5
F5A
  8
标注
 10
143.23582023988399
 20
186.001424129051
 30
0.0
 11
146.22335304825901
 21
186.001424129051
 31
0.0
  0
LINE
  5
F5B
  8
标注
 10
153.0775525233008
 20
186.001424129051
 30
0.0
 11
150.09001971492569
 21
186.001424129051
 31
0.0
  0
SOLID
  5
F5C
  8
标注
 10
143.23582023988399
 20
186.10975746238429
 30
0.0
 11
143.23582023988399
 21
185.89309079571751
 31
0.0
 12
142.58582023988399
 22
186.001424129051
 32
0.0
 13
142.58582023988399
 23
186.001424129051
 33
0.0
  0
SOLID
  5
F5D
  8
标注
 10
153.0775525233008
 20
186.10975746238429
 30
0.0
 11
153.0775525233008
 21
185.89309079571751
 31
0.0
 12
153.7275525233008
 22
186.001424129051
 32
0.0
 13
153.7275525233008
 23
186.001424129051
 33
0.0
  0
INSERT
  5
F5E
  8
标注
  2
*U146
 10
0.0
 20
0.0
 30
0.0
  0
POINT
  5
F5F
  8
DEFPOINTS
 62
     0
 10
142.58582023988399
 20
191.75229856154399
 30
0.0
  0
POINT
  5
F60
  8
DEFPOINTS
 62
     0
 10
153.7275525233008
 20
191.75229856156449
 30
0.0
  0
POINT
  5
F61
  8
DEFPOINTS
 62
     0
 10
153.7275525233008
 20
186.001424129051
 30
0.0
  0
ENDBLK
  5
EE8
  8
0
  0
BLOCK
  8
0
  2
*U146
 70
     1
 10
0.0
 20
0.0
 30
0.0
  3
*U146
  1

  0
TEXT
  5
1B77
  8
标注
 10
146.42335304825909
 20
185.6764241290509
 30
0.0
 40
0.65
  1
11 1/8"
  0
ENDBLK
  5
1B79
  8
0
  0
BLOCK
  8
0
  2
*D147
 70
     1
 10
0.0
 20
0.0
 30
0.0
  3
*D147
  1

  0
LINE
  5
F62
  8
标注
 10
151.4579462240925
 20
188.602692262365
 30
0.0
 11
156.37738259078219
 21
188.602692262365
 31
0.0
  0
LINE
  5
F63
  8
标注
 10
151.4579462240925
 20
201.31922769538591
 30
0.0
 11
156.37738259078219
 21
201.31922769538591
 31
0.0
  0
LINE
  5
F64
  8
标注
 10
156.0573825907822
 20
189.252692262365
 30
0.0
 11
156.0573825907822
 21
192.8109599788755
 31
0.0
  0
LINE
  5
F65
  8
标注
 10
156.0573825907822
 20
200.6692276953859
 30
0.0
 11
156.0573825907822
 21
197.11095997887551
 31
0.0
  0
SOLID
  5
F66
  8
标注
 10
155.94904925744891
 20
189.252692262365
 30
0.0
 11
156.1657159241154
 21
189.252692262365
 31
0.0
 12
156.0573825907822
 22
188.602692262365
 32
0.0
 13
156.0573825907822
 23
188.602692262365
 33
0.0
  0
SOLID
  5
F67
  8
标注
 10
155.94904925744891
 20
200.6692276953859
 30
0.0
 11
156.1657159241154
 21
200.6692276953859
 31
0.0
 12
156.0573825907822
 22
201.31922769538591
 32
0.0
 13
156.0573825907822
 23
201.31922769538591
 33
0.0
  0
INSERT
  5
F68
  8
标注
  2
*U148
 10
0.0
 20
0.0
 30
0.0
  0
POINT
  5
F69
  8
DEFPOINTS
 62
     0
 10
150.5779462240925
 20
188.602692262365
 30
0.0
  0
POINT
  5
F6A
  8
DEFPOINTS
 62
     0
 10
150.5779462240925
 20
201.31922769538591
 30
0.0
  0
POINT
  5
F6B
  8
DEFPOINTS
 62
     0
 10
156.0573825907822
 20
201.31922769538591
 30
0.0
  0
ENDBLK
  5
F02
  8
0
  0
BLOCK
  8
0
  2
*U148
 70
     1
 10
0.0
 20
0.0
 30
0.0
  3
*U148
  1

  0
TEXT
  5
1B7B
  8
标注
 10
156.38238259078221
 20
193.01095997887549
 30
0.0
 40
0.65
  1
12 3/4"
 50
90.0
  0
ENDBLK
  5
1B7D
  8
0
  0
BLOCK
  8
0
  2
*D149
 70
     1
 10
0.0
 20
0.0
 30
0.0
  3
*D149
  1

  0
LINE
  5
F6C
  8
标注
 10
141.66062338948811
 20
190.8722985615442
 30
0.0
 11
141.66062338948811
 21
183.8199361958593
 31
0.0
  0
LINE
  5
F6D
  8
标注
 10
154.6527493736821
 20
190.8722985615442
 30
0.0
 11
154.6527493736821
 21
183.8199361958593
 31
0.0
  0
LINE
  5
F6E
  8
标注
 10
142.31062338948809
 20
184.13993619585909
 30
0.0
 11
147.30668638158511
 21
184.13993619585909
 31
0.0
  0
LINE
  5
F6F
  8
标注
 10
154.00274937368209
 20
184.13993619585909
 30
0.0
 11
149.0066863815851
 21
184.13993619585909
 31
0.0
  0
SOLID
  5
F70
  8
标注
 10
142.31062338948809
 20
184.2482695291925
 30
0.0
 11
142.31062338948809
 21
184.0316028625258
 31
0.0
 12
141.66062338948811
 22
184.13993619585909
 32
0.0
 13
141.66062338948811
 23
184.13993619585909
 33
0.0
  0
SOLID
  5
F71
  8
标注
 10
154.00274937368209
 20
184.2482695291925
 30
0.0
 11
154.00274937368209
 21
184.0316028625258
 31
0.0
 12
154.6527493736821
 22
184.13993619585909
 32
0.0
 13
154.6527493736821
 23
184.13993619585909
 33
0.0
  0
INSERT
  5
F72
  8
标注
  2
*U150
 10
0.0
 20
0.0
 30
0.0
  0
POINT
  5
F73
  8
DEFPOINTS
 62
     0
 10
141.66062338948811
 20
191.75229856154399
 30
0.0
  0
POINT
  5
F74
  8
DEFPOINTS
 62
     0
 10
154.6527493736821
 20
191.75229856154399
 30
0.0
  0
POINT
  5
F75
  8
DEFPOINTS
 62
     0
 10
154.6527493736821
 20
184.13993619585909
 30
0.0
  0
ENDBLK
  5
F1C
  8
0
  0
BLOCK
  8
0
  2
*U150
 70
     1
 10
0.0
 20
0.0
 30
0.0
  3
*U150
  1

  0
TEXT
  5
1B7F
  8
标注
 10
147.5066863815851
 20
183.81493619585919
 30
0.0
 40
0.65
  1
13"
  0
ENDBLK
  5
1B81
  8
0
  0
BLOCK
  8
0
  2
*D151
 70
     1
 10
0.0
 20
0.0
 30
0.0
  3
*D151
  1

  0
LINE
  5
F76
  8
标注
 10
151.4330105629154
 20
187.6774954119546
 30
0.0
 11
157.93216445775471
 21
187.6774954119546
 31
0.0
  0
LINE
  5
F77
  8
标注
 10
151.4330105629154
 20
202.24442454576729
 30
0.0
 11
157.93216445775471
 21
202.24442454576729
 31
0.0
  0
LINE
  5
F78
  8
标注
 10
157.61216445775469
 20
188.3274954119546
 30
0.0
 11
157.61216445775469
 21
192.81095997886089
 31
0.0
  0
LINE
  5
F79
  8
标注
 10
157.61216445775469
 20
201.59442454576731
 30
0.0
 11
157.61216445775469
 21
197.1109599788609
 31
0.0
  0
SOLID
  5
F7A
  8
标注
 10
157.50383112442131
 20
188.3274954119546
 30
0.0
 11
157.72049779108801
 21
188.3274954119546
 31
0.0
 12
157.61216445775469
 22
187.6774954119546
 32
0.0
 13
157.61216445775469
 23
187.6774954119546
 33
0.0
  0
SOLID
  5
F7B
  8
标注
 10
157.5038311244214
 20
201.59442454576731
 30
0.0
 11
157.72049779108801
 21
201.59442454576731
 31
0.0
 12
157.61216445775469
 22
202.24442454576729
 32
0.0
 13
157.61216445775469
 23
202.24442454576729
 33
0.0
  0
INSERT
  5
F7C
  8
标注
  2
*U152
 10
0.0
 20
0.0
 30
0.0
  0
POINT
  5
F7D
  8
DEFPOINTS
 62
     0
 10
150.5530105629154
 20
187.6774954119546
 30
0.0
  0
POINT
  5
F7E
  8
DEFPOINTS
 62
     0
 10
150.5530105629154
 20
202.24442454576729
 30
0.0
  0
POINT
  5
F7F
  8
DEFPOINTS
 62
     0
 10
157.61216445775469
 20
202.24442454576729
 30
0.0
  0
ENDBLK
  5
F36
  8
0
  0
BLOCK
  8
0
  2
*U152
 70
     1
 10
0.0
 20
0.0
 30
0.0
  3
*U152
  1

  0
TEXT
  5
1B83
  8
标注
 10
157.93716445775459
 20
193.010959978861
 30
0.0
 40
0.65
  1
14 5/8"
 50
90.0
  0
ENDBLK
  5
1B85
  8
0
  0
BLOCK
  8
0
  2
*D153
 70
     1
 10
0.0
 20
0.0
 30
0.0
  3
*D153
  1

  0
LINE
  5
16B5
  8
标注
 10
199.6230526034937
 20
191.97252358762319
 30
0.0
 11
199.6230526034937
 21
186.8420819750155
 31
0.0
  0
LINE
  5
16B6
  8
标注
 10
207.14273764283419
 20
191.97252358762319
 30
0.0
 11
207.14273764283419
 21
186.8420819750155
 31
0.0
  0
LINE
  5
16B7
  8
标注
 10
200.27305260349371
 20
187.1620819750155
 30
0.0
 11
201.557895123164
 21
187.1620819750155
 31
0.0
  0
LINE
  5
16B8
  8
标注
 10
206.49273764283419
 20
187.1620819750155
 30
0.0
 11
205.20789512316389
 21
187.1620819750155
 31
0.0
  0
SOLID
  5
16B9
  8
标注
 10
200.27305260349371
 20
187.27041530834879
 30
0.0
 11
200.27305260349371
 21
187.0537486416822
 31
0.0
 12
199.6230526034937
 22
187.1620819750155
 32
0.0
 13
199.6230526034937
 23
187.1620819750155
 33
0.0
  0
SOLID
  5
16BA
  8
标注
 10
206.49273764283419
 20
187.27041530834879
 30
0.0
 11
206.49273764283419
 21
187.0537486416822
 31
0.0
 12
207.14273764283419
 22
187.1620819750155
 32
0.0
 13
207.14273764283419
 23
187.1620819750155
 33
0.0
  0
INSERT
  5
16BB
  8
标注
  2
*U154
 10
0.0
 20
0.0
 30
0.0
  0
POINT
  5
16BC
  8
DEFPOINTS
 62
     0
 10
199.6230526034937
 20
192.85252358762321
 30
0.0
  0
POINT
  5
16BD
  8
DEFPOINTS
 62
     0
 10
207.14273764283419
 20
192.85252358762321
 30
0.0
  0
POINT
  5
16BE
  8
DEFPOINTS
 62
     0
 10
207.14273764283419
 20
187.1620819750155
 30
0.0
  0
ENDBLK
  5
16A9
  8
0
  0
BLOCK
  8
0
  2
*U154
 70
     1
 10
0.0
 20
0.0
 30
0.0
  3
*U154
  1

  0
TEXT
  5
1C30
  8
标注
 10
201.75789512316391
 20
186.83708197501551
 30
0.0
 40
0.65
  1
7 1/2"
  0
ENDBLK
  5
1C32
  8
0
  0
BLOCK
  8
0
  2
*D155
 70
     1
 10
0.0
 20
0.0
 30
0.0
  3
*D155
  1

  0
LINE
  5
16CF
  8
标注
 10
198.64667465073711
 20
191.97303838519119
 30
0.0
 11
198.64667465073711
 21
185.11362334894301
 31
0.0
  0
LINE
  5
16D0
  8
标注
 10
208.13486362708639
 20
191.97303838519119
 30
0.0
 11
208.13486362708639
 21
185.11362334894301
 31
0.0
  0
LINE
  5
16D1
  8
标注
 10
199.2966746507372
 20
185.433623348943
 30
0.0
 11
201.5657691389118
 21
185.433623348943
 31
0.0
  0
LINE
  5
16D2
  8
标注
 10
207.48486362708641
 20
185.433623348943
 30
0.0
 11
205.21576913891181
 21
185.433623348943
 31
0.0
  0
SOLID
  5
16D3
  8
标注
 10
199.2966746507372
 20
185.54195668227621
 30
0.0
 11
199.2966746507372
 21
185.32529001560971
 31
0.0
 12
198.64667465073711
 22
185.433623348943
 32
0.0
 13
198.64667465073711
 23
185.433623348943
 33
0.0
  0
SOLID
  5
16D4
  8
标注
 10
207.48486362708641
 20
185.54195668227621
 30
0.0
 11
207.48486362708641
 21
185.32529001560971
 31
0.0
 12
208.13486362708639
 22
185.433623348943
 32
0.0
 13
208.13486362708639
 23
185.433623348943
 33
0.0
  0
INSERT
  5
16D5
  8
标注
  2
*U156
 10
0.0
 20
0.0
 30
0.0
  0
POINT
  5
16D6
  8
DEFPOINTS
 62
     0
 10
198.64667465073711
 20
192.85303838519121
 30
0.0
  0
POINT
  5
16D7
  8
DEFPOINTS
 62
     0
 10
208.13486362708639
 20
192.85303838519121
 30
0.0
  0
POINT
  5
16D8
  8
DEFPOINTS
 62
     0
 10
208.13486362708639
 20
185.433623348943
 30
0.0
  0
ENDBLK
  5
16C3
  8
0
  0
BLOCK
  8
0
  2
*U156
 70
     1
 10
0.0
 20
0.0
 30
0.0
  3
*U156
  1

  0
TEXT
  5
1C34
  8
标注
 10
201.76576913891171
 20
185.10862334894301
 30
0.0
 40
0.65
  1
9 1/2"
  0
ENDBLK
  5
1C36
  8
0
  0
BLOCK
  8
0
  2
*D157
 70
     1
 10
0.0
 20
0.0
 30
0.0
  3
*D157
  1

  0
LINE
  5
16E9
  8
标注
 10
204.26289512316399
 20
189.8997676821318
 30
0.0
 11
209.79408306557011
 21
189.8997676821318
 31
0.0
  0
LINE
  5
16EA
  8
标注
 10
204.27076913890451
 20
205.96275980805601
 30
0.0
 11
209.79408306557011
 21
205.96275980805601
 31
0.0
  0
LINE
  5
16EB
  8
标注
 10
209.47408306557
 20
190.5497676821318
 30
0.0
 11
209.47408306557011
 21
195.88959707842719
 31
0.0
  0
LINE
  5
16EC
  8
标注
 10
209.47408306557011
 20
205.312759808056
 30
0.0
 11
209.47408306557011
 21
199.9729304117605
 31
0.0
  0
SOLID
  5
16ED
  8
标注
 10
209.36574973223679
 20
190.5497676821318
 30
0.0
 11
209.5824163989034
 21
190.5497676821318
 31
0.0
 12
209.47408306557
 22
189.8997676821318
 32
0.0
 13
209.47408306557
 23
189.8997676821318
 33
0.0
  0
SOLID
  5
16EE
  8
标注
 10
209.36574973223679
 20
205.312759808056
 30
0.0
 11
209.5824163989034
 21
205.312759808056
 31
0.0
 12
209.47408306557011
 22
205.96275980805601
 32
0.0
 13
209.47408306557011
 23
205.96275980805601
 33
0.0
  0
INSERT
  5
16EF
  8
标注
  2
*U158
 10
0.0
 20
0.0
 30
0.0
  0
POINT
  5
16F0
  8
DEFPOINTS
 62
     0
 10
203.38289512316399
 20
189.8997676821318
 30
0.0
  0
POINT
  5
16F1
  8
DEFPOINTS
 62
     0
 10
203.39076913890449
 20
205.96275980805601
 30
0.0
  0
POINT
  5
16F2
  8
DEFPOINTS
 62
     0
 10
209.47408306557011
 20
205.96275980805601
 30
0.0
  0
ENDBLK
  5
16DD
  8
0
  0
BLOCK
  8
0
  2
*U158
 70
     1
 10
0.0
 20
0.0
 30
0.0
  3
*U158
  1

  0
TEXT
  5
1C38
  8
标注
 10
209.79908306556999
 20
196.08959707842729
 30
0.0
 40
0.65
  1
16 1/8"
 50
90.0
  0
ENDBLK
  5
1C3A
  8
0
  0
BLOCK
  8
0
  2
*D159
 70
     1
 10
0.0
 20
0.0
 30
0.0
  3
*D159
  1

  0
LINE
  5
1703
  8
标注
 10
205.07750800005701
 20
188.91588794783539
 30
0.0
 11
211.57782054905991
 21
188.91588794783539
 31
0.0
  0
LINE
  5
1704
  8
标注
 10
205.07750800005701
 20
206.9470117765604
 30
0.0
 11
211.57782054905991
 21
206.9470117765604
 31
0.0
  0
LINE
  5
1705
  8
标注
 10
211.25782054905989
 20
189.56588794783551
 30
0.0
 11
211.25782054905989
 21
197.0814498621979
 31
0.0
  0
LINE
  5
1706
  8
标注
 10
211.25782054905989
 20
206.2970117765604
 30
0.0
 11
211.25782054905989
 21
198.78144986219789
 31
0.0
  0
SOLID
  5
1707
  8
标注
 10
211.14948721572651
 20
189.56588794783551
 30
0.0
 11
211.36615388239329
 21
189.56588794783551
 31
0.0
 12
211.25782054905989
 22
188.91588794783539
 32
0.0
 13
211.25782054905989
 23
188.91588794783539
 33
0.0
  0
SOLID
  5
1708
  8
标注
 10
211.14948721572651
 20
206.2970117765604
 30
0.0
 11
211.36615388239329
 21
206.2970117765604
 31
0.0
 12
211.25782054905989
 22
206.9470117765604
 32
0.0
 13
211.25782054905989
 23
206.9470117765604
 33
0.0
  0
INSERT
  5
1709
  8
标注
  2
*U160
 10
0.0
 20
0.0
 30
0.0
  0
POINT
  5
170A
  8
DEFPOINTS
 62
     0
 10
204.19750800005701
 20
188.91588794783539
 30
0.0
  0
POINT
  5
170B
  8
DEFPOINTS
 62
     0
 10
204.19750800005701
 20
206.9470117765604
 30
0.0
  0
POINT
  5
170C
  8
DEFPOINTS
 62
     0
 10
211.25782054905989
 20
206.9470117765604
 30
0.0
  0
ENDBLK
  5
16F7
  8
0
  0
BLOCK
  8
0
  2
*U160
 70
     1
 10
0.0
 20
0.0
 30
0.0
  3
*U160
  1

  0
TEXT
  5
1C3C
  8
标注
 10
211.5828205490599
 20
197.281449862198
 30
0.0
 40
0.65
  1
18"
 50
90.0
  0
ENDBLK
  5
1C3E
  8
0
  0
BLOCK
  8
0
  2
*U161
 70
     1
 10
0.0
 20
0.0
 30
0.0
  3
*U161
  1

  0
CIRCLE
  5
1B87
  8
0
 10
4.8229181016795311
 20
40.267913296411272
 30
0.0
 40
1.8897637795199991
  0
ENDBLK
  5
1B89
  8
0
  0
BLOCK
  8
0
  2
*U162
 70
     1
 10
0.0
 20
0.0
 30
0.0
  3
*U162
  1

  0
CIRCLE
  5
1B8B
  8
0
 10
4.8229181016795311
 20
40.267913296411272
 30
0.0
 40
1.7716535433
  0
ENDBLK
  5
1B8D
  8
0
  0
BLOCK
  8
0
  2
*U163
 70
     1
 10
0.0
 20
0.0
 30
0.0
  3
*U163
  1

  0
CIRCLE
  5
1B8F
  8
0
 10
4.8229181016795311
 20
40.267913296411272
 30
0.0
 40
1.3779527558999991
  0
ENDBLK
  5
1B91
  8
0
  0
BLOCK
  8
0
  2
*U164
 70
     1
 10
0.0
 20
0.0
 30
0.0
  3
*U164
  1

  0
CIRCLE
  5
1B9C
  8
0
 10
4.8229181016795311
 20
40.267913296411272
 30
0.0
 40
1.7716535433
  0
ENDBLK
  5
1B9E
  8
0
  0
BLOCK
  8
0
  2
*U165
 70
     1
 10
0.0
 20
0.0
 30
0.0
  3
*U165
  1

  0
CIRCLE
  5
1BDC
  8
0
 10
203.39076913890449
 20
197.9312637450939
 30
0.0
 40
1.8897637795199991
  0
ENDBLK
  5
1BDE
  8
0
  0
BLOCK
  8
0
  2
*U166
 70
     1
 10
0.0
 20
0.0
 30
0.0
  3
*U166
  1

  0
CIRCLE
  5
1BE0
  8
0
 10
203.39076913890449
 20
197.9312637450939
 30
0.0
 40
1.7716535433
  0
ENDBLK
  5
1BE2
  8
0
  0
BLOCK
  8
0
  2
*U167
 70
     1
 10
0.0
 20
0.0
 30
0.0
  3
*U167
  1

  0
CIRCLE
  5
1BE4
  8
0
 10
203.39076913890449
 20
197.9312637450939
 30
0.0
 40
1.3779527558999991
  0
ENDBLK
  5
1BE6
  8
0
  0
BLOCK
  8
0
  2
*U168
 70
     1
 10
0.0
 20
0.0
 30
0.0
  3
*U168
  1

  0
CIRCLE
  5
1BF1
  8
0
 10
203.39076913890449
 20
197.9312637450939
 30
0.0
 40
1.7716535433
  0
ENDBLK
  5
1BF3
  8
0
  0
BLOCK
  8
0
  2
*U169
 70
     1
 10
0.0
 20
0.0
 30
0.0
  3
*U169
  1

  0
TEXT
  5
1C28
  8
标注
 10
199.58317406305869
 20
209.98802518307809
 30
0.0
 40
0.7874015748031497
  1
FRONT VIEW
  0
ENDBLK
  5
1C2A
  8
0
  0
BLOCK
  8
0
  2
*U170
 70
     1
 10
0.0
 20
0.0
 30
0.0
  3
*U170
  1

  0
TEXT
  5
1C2C
  8
标注
 10
198.901963176495
 20
181.47725140079049
 30
0.0
 40
0.7874015748031497
  1
OVERHEAD VIEW
  0
ENDBLK
  5
1C2E
  8
0
  0
BLOCK
  8
0
  2
*U171
 70
     1
 10
0.0
 20
0.0
 30
0.0
  3
*U171
  1

  0
TEXT
  5
1C40
  8
标注
 10
204.61230910170289
 20
147.37659052440111
 30
0.0
 40
0.7874015748031497
  1
1/4" 
  0
TEXT
  5
1C41
  8
标注
 10
208.0243825925165
 20
147.37659052440111
 30
0.0
 40
0.7874015748031497
  1
REVEAL CUTOUT
  0
ENDBLK
  5
1C43
  8
0
  0
BLOCK
  8
0
  2
*U172
 70
     1
 10
0.0
 20
0.0
 30
0.0
  3
*U172
  1

  0
TEXT
  5
1C45
  8
标注
 10
204.52207481482191
 20
145.4080865873932
 30
0.0
 40
0.7874015748031497
  1
FLUSH CUTOUT
  0
ENDBLK
  5
1C47
  8
0
  0
BLOCK
  8
0
  2
*U173
 70
     1
 10
0.0
 20
0.0
 30
0.0
  3
*U173
  1

  0
TEXT
  5
1C49
  8
标注
 10
204.59509884741911
 20
54.645124162853122
 30
0.0
 40
0.7874015748031497
  1
1/4" 
  0
TEXT
  5
1C4A
  8
标注
 10
208.00717233823269
 20
54.645124162853122
 30
0.0
 40
0.7874015748031497
  1
OVERHANG CUTOUT
  0
ENDBLK
  5
1C4C
  8
0
  0
BLOCK
  8
0
  2
*U174
 70
     1
 10
0.0
 20
0.0
 30
0.0
  3
*U174
  1

  0
TEXT
  5
1C57
  8
标注
 10
203.97460289421619
 20
115.5111307933615
 30
0.0
 40
0.7874015748031497
  1
1/4" 
  0
TEXT
  5
1C58
  8
标注
 10
207.38667638502989
 20
115.5111307933615
 30
0.0
 40
0.7874015748031497
  1
REVEAL CUTOUT
  0
ENDBLK
  5
1C5A
  8
0
  0
BLOCK
  8
0
  2
*U175
 70
     1
 10
0.0
 20
0.0
 30
0.0
  3
*U175
  1

  0
TEXT
  5
1C65
  8
标注
 10
204.3214147744176
 20
85.646500318817658
 30
0.0
 40
0.7874015748031497
  1
FLUSH CUTOUT
  0
ENDBLK
  5
1C67
  8
0
  0
BLOCK
  8
0
  2
*D176
 70
     1
 10
0.0
 20
0.0
 30
0.0
  3
*D176
  1

  0
LINE
  5
235D
  8
标注
 10
206.48891471964569
 20
213.14185567497719
 30
0.0
 11
210.01774746677251
 21
213.14185567497719
 31
0.0
  0
LINE
  5
235E
  8
标注
 10
209.01486362708641
 20
218.4568163048894
 30
0.0
 11
210.01774746677251
 21
218.4568163048894
 31
0.0
  0
LINE
  5
235F
  8
标注
 10
209.6977474667724
 20
212.49185567497719
 30
0.0
 11
209.6977474667724
 21
211.84185567497721
 31
0.0
  0
LINE
  5
2360
  8
标注
 10
209.6977474667724
 20
219.10681630488941
 30
0.0
 11
209.6977474667724
 21
219.75681630488941
 31
0.0
  0
LINE
  5
2361
  8
标注
 10
209.6977474667724
 20
213.14185567497719
 30
0.0
 11
209.6977474667724
 21
213.64933598993329
 31
0.0
  0
LINE
  5
2362
  8
标注
 10
209.6977474667724
 20
218.4568163048894
 30
0.0
 11
209.6977474667724
 21
217.9493359899333
 31
0.0
  0
SOLID
  5
2363
  8
标注
 10
209.58941413343919
 20
212.49185567497719
 30
0.0
 11
209.8060808001058
 21
212.49185567497719
 31
0.0
 12
209.6977474667724
 22
213.14185567497719
 32
0.0
 13
209.6977474667724
 23
213.14185567497719
 33
0.0
  0
SOLID
  5
2364
  8
标注
 10
209.58941413343919
 20
219.10681630488941
 30
0.0
 11
209.8060808001058
 21
219.10681630488941
 31
0.0
 12
209.6977474667724
 22
218.4568163048894
 32
0.0
 13
209.6977474667724
 23
218.4568163048894
 33
0.0
  0
TEXT
  5
2369
  8
标注
 10
208.398
 20
214.649
 30
0.0
 40
0.65
  1
5 5/16"
  0
POINT
  5
2366
  8
DEFPOINTS
 62
     0
 10
205.6089147196457
 20
213.14185567497719
 30
0.0
  0
POINT
  5
2367
  8
DEFPOINTS
 62
     0
 10
208.13486362708639
 20
218.4568163048894
 30
0.0
  0
POINT
  5
2368
  8
DEFPOINTS
 62
     0
 10
209.6977474667724
 20
218.4568163048894
 30
0.0
  0
ENDBLK
  5
229D
  8
0
  0
BLOCK
  8
0
  2
*D177
 70
     1
 10
0.0
 20
0.0
 30
0.0
  3
*D177
  1

  0
LINE
  5
2709
  8
标注
 62
     0
 10
205.6714147196457
 20
213.14185567497719
 30
0.0
 11
209.87774746677249
 21
213.14185567497719
 31
0.0
  0
LINE
  5
270A
  8
标注
 62
     0
 10
208.19736362708639
 20
218.4568163048894
 30
0.0
 11
209.87774746677249
 21
218.4568163048894
 31
0.0
  0
LINE
  5
270B
  8
标注
 62
     0
 10
209.6977474667724
 20
213.3218556749772
 30
0.0
 11
209.6977474667724
 21
215.61933598993329
 31
0.0
  0
LINE
  5
270C
  8
标注
 62
     0
 10
209.6977474667724
 20
218.27681630488939
 30
0.0
 11
209.6977474667724
 21
215.9793359899333
 31
0.0
  0
SOLID
  5
270D
  8
标注
 62
     0
 10
209.6677474667724
 20
213.3218556749772
 30
0.0
 11
209.72774746677251
 21
213.3218556749772
 31
0.0
 12
209.6977474667724
 22
213.14185567497719
 32
0.0
 13
209.6977474667724
 23
213.14185567497719
 33
0.0
  0
SOLID
  5
270E
  8
标注
 62
     0
 10
209.6677474667724
 20
218.27681630488939
 30
0.0
 11
209.72774746677251
 21
218.27681630488939
 31
0.0
 12
209.6977474667724
 22
218.4568163048894
 32
0.0
 13
209.6977474667724
 23
218.4568163048894
 33
0.0
  0
TEXT
  5
2745
  8
标注
 62
     0
 10
209.33799999999999
 20
215.48099999999999
 30
0.0
 40
0.18
  1
5.3150"
  0
POINT
  5
2710
  8
DEFPOINTS
 62
     0
 10
205.6089147196457
 20
213.14185567497719
 30
0.0
  0
POINT
  5
2711
  8
DEFPOINTS
 62
     0
 10
208.13486362708639
 20
218.4568163048894
 30
0.0
  0
POINT
  5
2712
  8
DEFPOINTS
 62
     0
 10
209.6977474667724
 20
218.4568163048894
 30
0.0
  0
ENDBLK
  5
2708
  8
0
  0
BLOCK
  8
0
  2
*D179
 70
     1
 10
0.0
 20
0.0
 30
0.0
  3
*D179
  1

  0
LINE
  5
29E7
  8
标注
 10
96.626640552268356
 20
227.670013658806
 30
0.0
 11
98.601171223149279
 21
227.670013658806
 31
0.0
  0
LINE
  5
29E8
  8
标注
 10
92.281148790491486
 20
220.6608875449765
 30
0.0
 11
98.601171223149279
 21
220.6608875449765
 31
0.0
  0
LINE
  5
29E9
  8
标注
 10
98.281171223149286
 20
227.02001365880599
 30
0.0
 11
98.281171223149286
 21
224.79878393522461
 31
0.0
  0
LINE
  5
29EA
  8
标注
 10
98.281171223149286
 20
221.31088754497659
 30
0.0
 11
98.281171223149286
 21
223.5321172685579
 31
0.0
  0
SOLID
  5
29EB
  8
标注
 10
98.17283788981598
 20
227.02001365880599
 30
0.0
 11
98.389504556482621
 21
227.02001365880599
 31
0.0
 12
98.281171223149286
 22
227.670013658806
 32
0.0
 13
98.281171223149286
 23
227.670013658806
 33
0.0
  0
SOLID
  5
29EC
  8
标注
 10
98.172837889815938
 20
221.31088754497659
 30
0.0
 11
98.389504556482606
 21
221.31088754497659
 31
0.0
 12
98.281171223149286
 22
220.6608875449765
 32
0.0
 13
98.281171223149286
 23
220.6608875449765
 33
0.0
  0
INSERT
  5
29ED
  8
标注
  2
*U212
 10
0.0
 20
0.0
 30
0.0
  0
POINT
  5
29EE
  8
DEFPOINTS
 62
     0
 10
95.746640552268303
 20
227.670013658806
 30
0.0
  0
POINT
  5
29EF
  8
DEFPOINTS
 62
     0
 10
91.401148790491476
 20
220.6608875449765
 30
0.0
  0
POINT
  5
29F0
  8
DEFPOINTS
 62
     0
 10
98.281171223149286
 20
220.6608875449765
 30
0.0
  0
ENDBLK
  5
29F1
  8
0
  0
BLOCK
  8
0
  2
*D180
 70
     1
 10
0.0
 20
0.0
 30
0.0
  3
*D180
  1

  0
LINE
  5
29F4
  8
标注
 10
90.415026379039901
 20
206.14367634492311
 30
0.0
 11
98.802698408329434
 21
206.14367634492311
 31
0.0
  0
LINE
  5
29F5
  8
标注
 10
90.415026379039787
 20
190.1594243764192
 30
0.0
 11
98.802698408329434
 21
190.1594243764192
 31
0.0
  0
LINE
  5
29F6
  8
标注
 10
98.482698408329426
 20
205.4936763449231
 30
0.0
 11
98.482698408329426
 21
199.0015503606711
 31
0.0
  0
LINE
  5
29F7
  8
标注
 10
98.482698408329426
 20
190.80942437641909
 30
0.0
 11
98.482698408329426
 21
197.30155036067109
 31
0.0
  0
SOLID
  5
29F8
  8
标注
 10
98.374365074996106
 20
205.4936763449231
 30
0.0
 11
98.591031741662775
 21
205.4936763449231
 31
0.0
 12
98.482698408329426
 22
206.14367634492311
 32
0.0
 13
98.482698408329426
 23
206.14367634492311
 33
0.0
  0
SOLID
  5
29F9
  8
标注
 10
98.374365074996106
 20
190.80942437641909
 30
0.0
 11
98.591031741662775
 21
190.80942437641909
 31
0.0
 12
98.482698408329426
 22
190.1594243764192
 32
0.0
 13
98.482698408329426
 23
190.1594243764192
 33
0.0
  0
INSERT
  5
29FA
  8
标注
  2
*U213
 10
0.0
 20
0.0
 30
0.0
  0
POINT
  5
29FB
  8
DEFPOINTS
 62
     0
 10
89.535026379039891
 20
206.14367634492311
 30
0.0
  0
POINT
  5
29FC
  8
DEFPOINTS
 62
     0
 10
89.535026379039778
 20
190.1594243764192
 30
0.0
  0
POINT
  5
29FD
  8
DEFPOINTS
 62
     0
 10
98.482698408329426
 20
190.1594243764192
 30
0.0
  0
ENDBLK
  5
29FE
  8
0
  0
BLOCK
  8
0
  2
*D181
 70
     1
 10
0.0
 20
0.0
 30
0.0
  3
*D181
  1

  0
LINE
  5
2A01
  8
标注
 10
92.477034253055635
 20
207.14367634492311
 30
0.0
 11
101.4070415025555
 21
207.14367634492311
 31
0.0
  0
LINE
  5
2A02
  8
标注
 10
92.477034253055635
 20
189.1594243764192
 30
0.0
 11
101.4070415025555
 21
189.1594243764192
 31
0.0
  0
LINE
  5
2A03
  8
标注
 10
101.08704150255549
 20
206.4936763449231
 30
0.0
 11
101.08704150255549
 21
199.0015503606711
 31
0.0
  0
LINE
  5
2A04
  8
标注
 10
101.08704150255549
 20
189.80942437641909
 30
0.0
 11
101.08704150255549
 21
197.3015503606712
 31
0.0
  0
SOLID
  5
2A05
  8
标注
 10
100.9787081692221
 20
206.4936763449231
 30
0.0
 11
101.1953748358888
 21
206.4936763449231
 31
0.0
 12
101.08704150255549
 22
207.14367634492311
 32
0.0
 13
101.08704150255549
 23
207.14367634492311
 33
0.0
  0
SOLID
  5
2A06
  8
标注
 10
100.9787081692221
 20
189.80942437641909
 30
0.0
 11
101.1953748358888
 21
189.80942437641909
 31
0.0
 12
101.08704150255549
 22
189.1594243764192
 32
0.0
 13
101.08704150255549
 23
189.1594243764192
 33
0.0
  0
INSERT
  5
2A07
  8
标注
  2
*U214
 10
0.0
 20
0.0
 30
0.0
  0
POINT
  5
2A08
  8
DEFPOINTS
 62
     0
 10
91.597034253055654
 20
207.14367634492311
 30
0.0
  0
POINT
  5
2A09
  8
DEFPOINTS
 62
     0
 10
91.597034253055654
 20
189.1594243764192
 30
0.0
  0
POINT
  5
2A0A
  8
DEFPOINTS
 62
     0
 10
101.08704150255549
 20
189.1594243764192
 30
0.0
  0
ENDBLK
  5
2A0B
  8
0
  0
BLOCK
  8
0
  2
*D182
 70
     1
 10
0.0
 20
0.0
 30
0.0
  3
*D182
  1

  0
LINE
  5
2A0E
  8
标注
 10
84.298805906599
 20
197.24694406145849
 30
0.0
 11
84.298805906599
 21
186.68002501987741
 31
0.0
  0
LINE
  5
2A0F
  8
标注
 10
94.771246851480782
 20
197.27155036067111
 30
0.0
 11
94.771246851480782
 21
186.68002501987741
 31
0.0
  0
LINE
  5
2A10
  8
标注
 10
84.948805906599006
 20
187.0000250198774
 30
0.0
 11
87.547526379039894
 21
187.0000250198774
 31
0.0
  0
LINE
  5
2A11
  8
标注
 10
94.121246851480777
 20
187.0000250198774
 30
0.0
 11
91.522526379039874
 21
187.0000250198774
 31
0.0
  0
SOLID
  5
2A12
  8
标注
 10
84.948805906599006
 20
187.1083583532108
 30
0.0
 11
84.948805906599006
 21
186.89169168654411
 31
0.0
 12
84.298805906599
 22
187.0000250198774
 32
0.0
 13
84.298805906599
 23
187.0000250198774
 33
0.0
  0
SOLID
  5
2A13
  8
标注
 10
94.121246851480777
 20
187.1083583532108
 30
0.0
 11
94.121246851480777
 21
186.89169168654411
 31
0.0
 12
94.771246851480782
 22
187.0000250198774
 32
0.0
 13
94.771246851480782
 23
187.0000250198774
 33
0.0
  0
INSERT
  5
2A14
  8
标注
  2
*U215
 10
0.0
 20
0.0
 30
0.0
  0
POINT
  5
2A15
  8
DEFPOINTS
 62
     0
 10
84.298805906599
 20
198.1269440614586
 30
0.0
  0
POINT
  5
2A16
  8
DEFPOINTS
 62
     0
 10
94.771246851480782
 20
198.15155036067111
 30
0.0
  0
POINT
  5
2A17
  8
DEFPOINTS
 62
     0
 10
94.771246851480782
 20
187.0000250198774
 30
0.0
  0
ENDBLK
  5
2A18
  8
0
  0
BLOCK
  8
0
  2
*D183
 70
     1
 10
0.0
 20
0.0
 30
0.0
  3
*D183
  1

  0
LINE
  5
2A1B
  8
标注
 10
82.991719292425714
 20
193.21643225043491
 30
0.0
 11
82.991719292425714
 21
186.7117865246787
 31
0.0
  0
LINE
  5
2A1C
  8
标注
 10
65.275183859354783
 20
193.21643225043491
 30
0.0
 11
65.275183859354783
 21
186.7117865246787
 31
0.0
  0
LINE
  5
2A1D
  8
标注
 10
82.341719292425694
 20
187.03178652467869
 30
0.0
 11
76.283451575890226
 21
187.03178652467869
 31
0.0
  0
LINE
  5
2A1E
  8
标注
 10
65.925183859354789
 20
187.03178652467869
 30
0.0
 11
71.983451575890243
 21
187.03178652467869
 31
0.0
  0
SOLID
  5
2A1F
  8
标注
 10
82.341719292425694
 20
187.14011985801201
 30
0.0
 11
82.341719292425694
 21
186.9234531913454
 31
0.0
 12
82.991719292425714
 22
187.03178652467869
 32
0.0
 13
82.991719292425714
 23
187.03178652467869
 33
0.0
  0
SOLID
  5
2A20
  8
标注
 10
65.925183859354789
 20
187.14011985801201
 30
0.0
 11
65.925183859354789
 21
186.9234531913454
 31
0.0
 12
65.275183859354783
 22
187.03178652467869
 32
0.0
 13
65.275183859354783
 23
187.03178652467869
 33
0.0
  0
INSERT
  5
2A21
  8
标注
  2
*U216
 10
0.0
 20
0.0
 30
0.0
  0
POINT
  5
2A22
  8
DEFPOINTS
 62
     0
 10
82.991719292425714
 20
194.0964322504349
 30
0.0
  0
POINT
  5
2A23
  8
DEFPOINTS
 62
     0
 10
65.275183859354783
 20
194.0964322504349
 30
0.0
  0
POINT
  5
2A24
  8
DEFPOINTS
 62
     0
 10
65.275183859354783
 20
187.03178652467869
 30
0.0
  0
ENDBLK
  5
2A25
  8
0
  0
BLOCK
  8
0
  2
*D184
 70
     1
 10
0.0
 20
0.0
 30
0.0
  3
*D184
  1

  0
LINE
  5
2A28
  8
标注
 10
64.250577560142233
 20
193.21643225043491
 30
0.0
 11
64.250577560142233
 21
184.60283228304721
 31
0.0
  0
LINE
  5
2A29
  8
标注
 10
95.746640552268303
 20
192.42903067563179
 30
0.0
 11
95.746640552268303
 21
184.60283228304721
 31
0.0
  0
LINE
  5
2A2A
  8
标注
 10
64.900577560142224
 20
184.92283228304709
 30
0.0
 11
77.956942389538611
 21
184.92283228304709
 31
0.0
  0
LINE
  5
2A2B
  8
标注
 10
95.096640552268312
 20
184.92283228304709
 30
0.0
 11
82.040275722871954
 21
184.92283228304709
 31
0.0
  0
SOLID
  5
2A2C
  8
标注
 10
64.900577560142224
 20
185.03116561638049
 30
0.0
 11
64.900577560142224
 21
184.81449894971391
 31
0.0
 12
64.250577560142233
 22
184.92283228304709
 32
0.0
 13
64.250577560142233
 23
184.92283228304709
 33
0.0
  0
SOLID
  5
2A2D
  8
标注
 10
95.096640552268312
 20
185.03116561638049
 30
0.0
 11
95.096640552268312
 21
184.81449894971391
 31
0.0
 12
95.746640552268303
 22
184.92283228304709
 32
0.0
 13
95.746640552268303
 23
184.92283228304709
 33
0.0
  0
INSERT
  5
2A2E
  8
标注
  2
*U217
 10
0.0
 20
0.0
 30
0.0
  0
POINT
  5
2A2F
  8
DEFPOINTS
 62
     0
 10
64.250577560142233
 20
194.0964322504349
 30
0.0
  0
POINT
  5
2A30
  8
DEFPOINTS
 62
     0
 10
95.746640552268303
 20
193.30903067563179
 30
0.0
  0
POINT
  5
2A31
  8
DEFPOINTS
 62
     0
 10
95.746640552268303
 20
184.92283228304709
 30
0.0
  0
ENDBLK
  5
2A32
  8
0
  0
BLOCK
  8
0
  2
*D185
 70
     1
 10
0.0
 20
0.0
 30
0.0
  3
*D185
  1

  0
LINE
  5
2A35
  8
标注
 10
73.253451575890381
 20
208.66336138429321
 30
0.0
 11
61.090640117179468
 21
208.6633613842933
 31
0.0
  0
LINE
  5
2A36
  8
标注
 10
68.332191733370564
 20
190.1594243764192
 30
0.0
 11
61.090640117179468
 21
190.1594243764192
 31
0.0
  0
LINE
  5
2A37
  8
标注
 10
61.410640117179469
 20
208.0133613842932
 30
0.0
 11
61.410640117179469
 21
201.45305954702289
 31
0.0
  0
LINE
  5
2A38
  8
标注
 10
61.410640117179469
 20
190.80942437641909
 30
0.0
 11
61.410640117179469
 21
197.36972621368949
 31
0.0
  0
SOLID
  5
2A39
  8
标注
 10
61.302306783846142
 20
208.0133613842932
 30
0.0
 11
61.51897345051281
 21
208.0133613842932
 31
0.0
 12
61.410640117179469
 22
208.6633613842933
 32
0.0
 13
61.410640117179469
 23
208.6633613842933
 33
0.0
  0
SOLID
  5
2A3A
  8
标注
 10
61.302306783846127
 20
190.80942437641909
 30
0.0
 11
61.518973450512803
 21
190.80942437641909
 31
0.0
 12
61.410640117179469
 22
190.1594243764192
 32
0.0
 13
61.410640117179469
 23
190.1594243764192
 33
0.0
  0
INSERT
  5
2A3B
  8
标注
  2
*U218
 10
0.0
 20
0.0
 30
0.0
  0
POINT
  5
2A3C
  8
DEFPOINTS
 62
     0
 10
74.133451575890376
 20
208.66336138429321
 30
0.0
  0
POINT
  5
2A3D
  8
DEFPOINTS
 62
     0
 10
69.21219173337056
 20
190.1594243764192
 30
0.0
  0
POINT
  5
2A3E
  8
DEFPOINTS
 62
     0
 10
61.410640117179469
 20
190.1594243764192
 30
0.0
  0
ENDBLK
  5
2A3F
  8
0
  0
BLOCK
  8
0
  2
*D186
 70
     1
 10
0.0
 20
0.0
 30
0.0
  3
*D186
  1

  0
LINE
  5
2A42
  8
标注
 10
73.228845276677703
 20
209.66336138429321
 30
0.0
 11
58.67789916953398
 21
209.66336138429321
 31
0.0
  0
LINE
  5
2A43
  8
标注
 10
68.307585434158
 20
189.15942437641911
 30
0.0
 11
58.67789916953398
 21
189.15942437641911
 31
0.0
  0
LINE
  5
2A44
  8
标注
 10
58.99789916953398
 20
209.0133613842932
 30
0.0
 11
58.99789916953398
 21
201.50722621368951
 31
0.0
  0
LINE
  5
2A45
  8
标注
 10
58.99789916953398
 20
189.80942437641909
 30
0.0
 11
58.99789916953398
 21
197.31555954702279
 31
0.0
  0
SOLID
  5
2A46
  8
标注
 10
58.889565836200639
 20
209.0133613842932
 30
0.0
 11
59.106232502867307
 21
209.0133613842932
 31
0.0
 12
58.99789916953398
 22
209.66336138429321
 32
0.0
 13
58.99789916953398
 23
209.66336138429321
 33
0.0
  0
SOLID
  5
2A47
  8
标注
 10
58.889565836200639
 20
189.80942437641909
 30
0.0
 11
59.106232502867307
 21
189.80942437641909
 31
0.0
 12
58.99789916953398
 22
189.15942437641911
 32
0.0
 13
58.99789916953398
 23
189.15942437641911
 33
0.0
  0
INSERT
  5
2A48
  8
标注
  2
*U219
 10
0.0
 20
0.0
 30
0.0
  0
POINT
  5
2A49
  8
DEFPOINTS
 62
     0
 10
74.108845276677698
 20
209.66336138429321
 30
0.0
  0
POINT
  5
2A4A
  8
DEFPOINTS
 62
     0
 10
69.187585434157995
 20
189.15942437641911
 30
0.0
  0
POINT
  5
2A4B
  8
DEFPOINTS
 62
     0
 10
58.99789916953398
 20
189.15942437641911
 30
0.0
  0
ENDBLK
  5
2A4C
  8
0
  0
BLOCK
  8
0
  2
*D187
 70
     1
 10
0.0
 20
0.0
 30
0.0
  3
*D187
  1

  0
LINE
  5
2A4F
  8
标注
 10
63.370577560142337
 20
227.67001365880631
 30
0.0
 11
61.133004644758941
 21
227.67001365880631
 31
0.0
  0
LINE
  5
2A50
  8
标注
 10
71.131385010962333
 20
218.6687615607247
 30
0.0
 11
61.133004644758941
 21
218.6687615607247
 31
0.0
  0
LINE
  5
2A51
  8
标注
 10
61.453004644758941
 20
227.02001365880631
 30
0.0
 11
61.453004644758941
 21
223.80272094309879
 31
0.0
  0
LINE
  5
2A52
  8
标注
 10
61.453004644758941
 20
219.31876156072471
 30
0.0
 11
61.453004644758941
 21
222.5360542764322
 31
0.0
  0
SOLID
  5
2A53
  8
标注
 10
61.3446713114256
 20
227.02001365880631
 30
0.0
 11
61.561337978092283
 21
227.02001365880631
 31
0.0
 12
61.453004644758941
 22
227.67001365880631
 32
0.0
 13
61.453004644758941
 23
227.67001365880631
 33
0.0
  0
SOLID
  5
2A54
  8
标注
 10
61.3446713114256
 20
219.31876156072471
 30
0.0
 11
61.561337978092283
 21
219.31876156072471
 31
0.0
 12
61.453004644758941
 22
218.6687615607247
 32
0.0
 13
61.453004644758941
 23
218.6687615607247
 33
0.0
  0
INSERT
  5
2A55
  8
标注
  2
*U220
 10
0.0
 20
0.0
 30
0.0
  0
POINT
  5
2A56
  8
DEFPOINTS
 62
     0
 10
64.250577560142361
 20
227.67001365880631
 30
0.0
  0
POINT
  5
2A57
  8
DEFPOINTS
 62
     0
 10
72.011385010962343
 20
218.6687615607247
 30
0.0
  0
POINT
  5
2A58
  8
DEFPOINTS
 62
     0
 10
61.453004644758941
 20
218.6687615607247
 30
0.0
  0
ENDBLK
  5
2A59
  8
0
  0
BLOCK
  8
0
  2
*D188
 70
     1
 10
0.0
 20
0.0
 30
0.0
  3
*D188
  1

  0
LINE
  5
2A5C
  8
标注
 10
68.192955671633143
 20
205.7749621877521
 30
0.0
 11
67.753299132183727
 21
206.2537127776414
 31
0.0
  0
INSERT
  5
2A5D
  8
标注
  2
*U221
 10
0.0
 20
0.0
 30
0.0
  0
SOLID
  5
2A5E
  8
标注
 10
67.833090897165263
 20
206.3269888675496
 30
0.0
 11
67.673507367202191
 21
206.18043668773319
 31
0.0
 12
67.313642592734297
 22
206.7324633675307
 32
0.0
 13
67.313642592734297
 23
206.7324633675307
 33
0.0
  0
POINT
  5
2A5F
  8
DEFPOINTS
 62
     0
 10
67.313642592734297
 20
206.7324633675307
 30
0.0
  0
POINT
  5
2A60
  8
DEFPOINTS
 62
     0
 10
71.574396457780068
 20
202.09284529470889
 30
0.0
  0
ENDBLK
  5
2A61
  8
0
  0
BLOCK
  8
0
  2
*D189
 70
     1
 10
0.0
 20
0.0
 30
0.0
  3
*D189
  1

  0
LINE
  5
2A64
  8
标注
 10
77.740728690444485
 20
206.9809284824648
 30
0.0
 11
77.877019013025105
 21
207.61647938362921
 31
0.0
  0
INSERT
  5
2A65
  8
标注
  2
*U222
 10
0.0
 20
0.0
 30
0.0
  0
SOLID
  5
2A66
  8
标注
 10
77.771093862831052
 20
207.6391944373926
 30
0.0
 11
77.982944163219187
 21
207.59376432986579
 31
0.0
 12
78.013309335605769
 22
208.25203028479359
 32
0.0
 13
78.013309335605769
 23
208.25203028479359
 33
0.0
  0
POINT
  5
2A67
  8
DEFPOINTS
 62
     0
 10
78.013309335605769
 20
208.25203028479359
 30
0.0
  0
POINT
  5
2A68
  8
DEFPOINTS
 62
     0
 10
74.13345157589012
 20
190.159424376419
 30
0.0
  0
ENDBLK
  5
2A69
  8
0
  0
BLOCK
  8
0
  2
*D190
 70
     1
 10
0.0
 20
0.0
 30
0.0
  3
*D190
  1

  0
LINE
  5
2A6C
  8
标注
 10
67.39864779931915
 20
192.1820475119651
 30
0.0
 11
66.95162465283974
 21
191.7101679653521
 31
0.0
  0
INSERT
  5
2A6D
  8
标注
  2
*U223
 10
0.0
 20
0.0
 30
0.0
  0
SOLID
  5
2A6E
  8
标注
 10
66.872978061737584
 20
191.78467182309859
 30
0.0
 11
67.030271243941911
 21
191.63566410760549
 31
0.0
 12
66.504601506360345
 22
191.2382884187391
 32
0.0
 13
66.504601506360345
 23
191.2382884187391
 33
0.0
  0
POINT
  5
2A6F
  8
DEFPOINTS
 62
     0
 10
66.504601506360345
 20
191.2382884187391
 30
0.0
  0
POINT
  5
2A70
  8
DEFPOINTS
 62
     0
 10
69.212191733370645
 20
194.0964322504349
 30
0.0
  0
ENDBLK
  5
2A71
  8
0
  0
BLOCK
  8
0
  2
*D191
 70
     1
 10
0.0
 20
0.0
 30
0.0
  3
*D191
  1

  0
LINE
  5
2A74
  8
标注
 10
80.767324383519394
 20
204.98904753237051
 30
0.0
 11
81.297134117760663
 21
205.3656131249347
 31
0.0
  0
INSERT
  5
2A75
  8
标注
  2
*U224
 10
0.0
 20
0.0
 30
0.0
  0
SOLID
  5
2A76
  8
标注
 10
81.234373185666627
 20
205.4539147473082
 30
0.0
 11
81.359895049854686
 21
205.2773115025611
 31
0.0
 12
81.826943852001932
 22
205.7421787174988
 32
0.0
 13
81.826943852001932
 23
205.7421787174988
 33
0.0
  0
POINT
  5
2A77
  8
DEFPOINTS
 62
     0
 10
81.826943852001932
 20
205.7421787174988
 30
0.0
  0
POINT
  5
2A78
  8
DEFPOINTS
 62
     0
 10
76.692506694000201
 20
202.0928452947087
 30
0.0
  0
ENDBLK
  5
2A79
  8
0
  0
BLOCK
  8
0
  2
*D192
 70
     1
 10
0.0
 20
0.0
 30
0.0
  3
*D192
  1

  0
LINE
  5
2A7C
  8
标注
 10
86.289041132904032
 20
192.05520043640419
 30
0.0
 11
85.830994377744048
 21
191.5940137387563
 31
0.0
  0
INSERT
  5
2A7D
  8
标注
  2
*U225
 10
0.0
 20
0.0
 30
0.0
  0
SOLID
  5
2A7E
  8
标注
 10
85.754129928136095
 20
191.67035486461629
 30
0.0
 11
85.907858827352072
 21
191.51767261289629
 31
0.0
 12
85.372947622584121
 22
191.1328270411083
 32
0.0
 13
85.372947622584121
 23
191.1328270411083
 33
0.0
  0
POINT
  5
2A7F
  8
DEFPOINTS
 62
     0
 10
85.372947622584121
 20
191.1328270411083
 30
0.0
  0
POINT
  5
2A80
  8
DEFPOINTS
 62
     0
 10
87.592435230869725
 20
193.36752939191609
 30
0.0
  0
ENDBLK
  5
2A81
  8
0
  0
BLOCK
  8
0
  2
*D194
 70
     1
 10
0.0
 20
0.0
 30
0.0
  3
*D194
  1

  0
LINE
  5
2CF0
  8
标注
 10
280.04688126852398
 20
206.75358602834629
 30
0.0
 11
265.49593516138032
 21
206.75358602834629
 31
0.0
  0
LINE
  5
2CF1
  8
标注
 10
275.12562142600427
 20
186.24964902047219
 30
0.0
 11
265.49593516138032
 21
186.24964902047219
 31
0.0
  0
LINE
  5
2CF2
  8
标注
 10
265.8159351613802
 20
206.10358602834631
 30
0.0
 11
265.8159351613802
 21
197.62245085774259
 31
0.0
  0
LINE
  5
2CF3
  8
标注
 10
265.8159351613802
 20
186.8996490204722
 30
0.0
 11
265.8159351613802
 21
195.38078419107589
 31
0.0
  0
SOLID
  5
2CF4
  8
标注
 10
265.7076018280469
 20
206.10358602834631
 30
0.0
 11
265.9242684947136
 21
206.10358602834631
 31
0.0
 12
265.8159351613802
 22
206.75358602834629
 32
0.0
 13
265.8159351613802
 23
206.75358602834629
 33
0.0
  0
SOLID
  5
2CF5
  8
标注
 10
265.7076018280469
 20
186.8996490204722
 30
0.0
 11
265.9242684947136
 21
186.8996490204722
 31
0.0
 12
265.8159351613802
 22
186.24964902047219
 32
0.0
 13
265.8159351613802
 23
186.24964902047219
 33
0.0
  0
INSERT
  5
2CF6
  8
标注
  2
*U242
 10
0.0
 20
0.0
 30
0.0
  0
POINT
  5
2CF7
  8
DEFPOINTS
 62
     0
 10
280.92688126852403
 20
206.75358602834629
 30
0.0
  0
POINT
  5
2CF8
  8
DEFPOINTS
 62
     0
 10
276.00562142600432
 20
186.24964902047219
 30
0.0
  0
POINT
  5
2CF9
  8
DEFPOINTS
 62
     0
 10
265.8159351613802
 20
186.24964902047219
 30
0.0
  0
ENDBLK
  5
2C51
  8
0
  0
BLOCK
  8
0
  2
*D195
 70
     1
 10
0.0
 20
0.0
 30
0.0
  3
*D195
  1

  0
LINE
  5
2C5F
  8
标注
 10
270.18861355198862
 20
224.76023830285939
 30
0.0
 11
267.95104063660523
 21
224.76023830285939
 31
0.0
  0
LINE
  5
2C60
  8
标注
 10
277.94942100280861
 20
215.75898620477781
 30
0.0
 11
267.95104063660523
 21
215.75898620477781
 31
0.0
  0
LINE
  5
2C61
  8
标注
 10
268.27104063660522
 20
224.11023830285939
 30
0.0
 11
268.27104063660522
 21
220.6762789204852
 31
0.0
  0
LINE
  5
2C62
  8
标注
 10
268.27104063660522
 20
216.40898620477779
 30
0.0
 11
268.27104063660522
 21
219.84294558715189
 31
0.0
  0
SOLID
  5
2C63
  8
标注
 10
268.16270730327187
 20
224.11023830285939
 30
0.0
 11
268.37937396993863
 21
224.11023830285939
 31
0.0
 12
268.27104063660522
 22
224.76023830285939
 32
0.0
 13
268.27104063660522
 23
224.76023830285939
 33
0.0
  0
SOLID
  5
2C64
  8
标注
 10
268.16270730327187
 20
216.40898620477779
 30
0.0
 11
268.37937396993863
 21
216.40898620477779
 31
0.0
 12
268.27104063660522
 22
215.75898620477781
 32
0.0
 13
268.27104063660522
 23
215.75898620477781
 33
0.0
  0
INSERT
  5
2C65
  8
标注
  2
*U237
 10
0.0
 20
0.0
 30
0.0
  0
POINT
  5
2C66
  8
DEFPOINTS
 62
     0
 10
271.06861355198862
 20
224.76023830285939
 30
0.0
  0
POINT
  5
2C67
  8
DEFPOINTS
 62
     0
 10
278.8294210028086
 20
215.75898620477781
 30
0.0
  0
POINT
  5
2C68
  8
DEFPOINTS
 62
     0
 10
268.27104063660522
 20
215.75898620477781
 30
0.0
  0
ENDBLK
  5
2C5E
  8
0
  0
BLOCK
  8
0
  2
*D196
 70
     1
 10
0.0
 20
0.0
 30
0.0
  3
*D196
  1

  0
LINE
  5
2C6C
  8
标注
 10
303.4446765441146
 20
224.76023830285911
 30
0.0
 11
305.41920721499548
 21
224.76023830285911
 31
0.0
  0
LINE
  5
2C6D
  8
标注
 10
299.09918478233777
 20
217.75111218902961
 30
0.0
 11
305.41920721499548
 21
217.75111218902961
 31
0.0
  0
LINE
  5
2C6E
  8
标注
 10
305.0992072149956
 20
224.1102383028591
 30
0.0
 11
305.0992072149956
 21
222.26817524594429
 31
0.0
  0
LINE
  5
2C6F
  8
标注
 10
305.0992072149956
 20
218.40111218902959
 30
0.0
 11
305.0992072149956
 21
220.24317524594429
 31
0.0
  0
SOLID
  5
2C70
  8
标注
 10
304.9908738816622
 20
224.1102383028591
 30
0.0
 11
305.20754054832889
 21
224.1102383028591
 31
0.0
 12
305.0992072149956
 22
224.76023830285911
 32
0.0
 13
305.0992072149956
 23
224.76023830285911
 33
0.0
  0
SOLID
  5
2C71
  8
标注
 10
304.9908738816622
 20
218.40111218902959
 30
0.0
 11
305.20754054832889
 21
218.40111218902959
 31
0.0
 12
305.0992072149956
 22
217.75111218902961
 32
0.0
 13
305.0992072149956
 23
217.75111218902961
 33
0.0
  0
INSERT
  5
2C72
  8
标注
  2
*U238
 10
0.0
 20
0.0
 30
0.0
  0
POINT
  5
2C73
  8
DEFPOINTS
 62
     0
 10
302.5646765441146
 20
224.76023830285911
 30
0.0
  0
POINT
  5
2C74
  8
DEFPOINTS
 62
     0
 10
298.21918478233778
 20
217.75111218902961
 30
0.0
  0
POINT
  5
2C75
  8
DEFPOINTS
 62
     0
 10
305.0992072149956
 20
217.75111218902961
 30
0.0
  0
ENDBLK
  5
2C6B
  8
0
  0
BLOCK
  8
0
  2
*D197
 70
     1
 10
0.0
 20
0.0
 30
0.0
  3
*D197
  1

  0
LINE
  5
2C79
  8
标注
 10
297.23306237088622
 20
203.23390098897619
 30
0.0
 11
305.62073440017571
 21
203.23390098897619
 31
0.0
  0
LINE
  5
2C7A
  8
标注
 10
297.23306237088599
 20
187.24964902047219
 30
0.0
 11
305.62073440017571
 21
187.24964902047219
 31
0.0
  0
LINE
  5
2C7B
  8
标注
 10
305.30073440017571
 20
202.58390098897621
 30
0.0
 11
305.30073440017571
 21
196.63344167139081
 31
0.0
  0
LINE
  5
2C7C
  8
标注
 10
305.30073440017571
 20
187.89964902047231
 30
0.0
 11
305.30073440017571
 21
193.8501083380574
 31
0.0
  0
INSERT
  5
2C7D
  8
标注
  2
*U239
 10
0.0
 20
0.0
 30
0.0
  0
SOLID
  5
2C7E
  8
标注
 10
305.19240106684242
 20
202.58390098897621
 30
0.0
 11
305.40906773350912
 21
202.58390098897621
 31
0.0
 12
305.30073440017571
 22
203.23390098897619
 32
0.0
 13
305.30073440017571
 23
203.23390098897619
 33
0.0
  0
SOLID
  5
2C7F
  8
标注
 10
305.19240106684242
 20
187.89964902047231
 30
0.0
 11
305.40906773350912
 21
187.89964902047231
 31
0.0
 12
305.30073440017571
 22
187.24964902047219
 32
0.0
 13
305.30073440017571
 23
187.24964902047219
 33
0.0
  0
POINT
  5
2C80
  8
DEFPOINTS
 62
     0
 10
296.35306237088622
 20
203.23390098897619
 30
0.0
  0
POINT
  5
2C81
  8
DEFPOINTS
 62
     0
 10
296.35306237088611
 20
187.24964902047219
 30
0.0
  0
POINT
  5
2C82
  8
DEFPOINTS
 62
     0
 10
305.30073440017571
 20
187.24964902047219
 30
0.0
  0
ENDBLK
  5
2C78
  8
0
  0
BLOCK
  8
0
  2
*D198
 70
     1
 10
0.0
 20
0.0
 30
0.0
  3
*D198
  1

  0
LINE
  5
2D21
  8
标注
 10
299.29507024490192
 20
204.23390098897619
 30
0.0
 11
308.22507749440177
 21
204.23390098897619
 31
0.0
  0
LINE
  5
2D22
  8
标注
 10
299.29507024490192
 20
186.2496490204723
 30
0.0
 11
308.22507749440177
 21
186.2496490204723
 31
0.0
  0
LINE
  5
2D23
  8
标注
 10
307.90507749440178
 20
203.58390098897621
 30
0.0
 11
307.90507749440178
 21
196.6334416713909
 31
0.0
  0
LINE
  5
2D24
  8
标注
 10
307.90507749440178
 20
186.89964902047231
 30
0.0
 11
307.90507749440178
 21
193.85010833805759
 31
0.0
  0
SOLID
  5
2D25
  8
标注
 10
307.79674416106849
 20
203.58390098897621
 30
0.0
 11
308.01341082773507
 21
203.58390098897621
 31
0.0
 12
307.90507749440178
 22
204.23390098897619
 32
0.0
 13
307.90507749440178
 23
204.23390098897619
 33
0.0
  0
SOLID
  5
2D26
  8
标注
 10
307.79674416106849
 20
186.89964902047231
 30
0.0
 11
308.01341082773507
 21
186.89964902047231
 31
0.0
 12
307.90507749440178
 22
186.2496490204723
 32
0.0
 13
307.90507749440178
 23
186.2496490204723
 33
0.0
  0
INSERT
  5
2D27
  8
标注
  2
*U249
 10
0.0
 20
0.0
 30
0.0
  0
POINT
  5
2D28
  8
DEFPOINTS
 62
     0
 10
298.41507024490193
 20
204.23390098897619
 30
0.0
  0
POINT
  5
2D29
  8
DEFPOINTS
 62
     0
 10
298.41507024490193
 20
186.2496490204723
 30
0.0
  0
POINT
  5
2D2A
  8
DEFPOINTS
 62
     0
 10
307.90507749440178
 20
186.2496490204723
 30
0.0
  0
ENDBLK
  5
2C85
  8
0
  0
BLOCK
  8
0
  2
*D199
 70
     1
 10
0.0
 20
0.0
 30
0.0
  3
*D199
  1

  0
LINE
  5
2C93
  8
标注
 10
291.11684189844527
 20
194.33716870551169
 30
0.0
 11
291.11684189844527
 21
183.77024966393051
 31
0.0
  0
LINE
  5
2C94
  8
标注
 10
301.589282843327
 20
194.36177500472411
 30
0.0
 11
301.589282843327
 21
183.77024966393051
 31
0.0
  0
LINE
  5
2C95
  8
标注
 10
291.76684189844519
 20
184.09024966393051
 30
0.0
 11
295.01556237088619
 21
184.09024966393051
 31
0.0
  0
LINE
  5
2C96
  8
标注
 10
300.93928284332708
 20
184.09024966393051
 30
0.0
 11
297.69056237088608
 21
184.09024966393051
 31
0.0
  0
SOLID
  5
2C97
  8
标注
 10
291.76684189844519
 20
184.1985829972638
 30
0.0
 11
291.76684189844519
 21
183.9819163305971
 31
0.0
 12
291.11684189844527
 22
184.09024966393051
 32
0.0
 13
291.11684189844527
 23
184.09024966393051
 33
0.0
  0
SOLID
  5
2C98
  8
标注
 10
300.93928284332708
 20
184.1985829972638
 30
0.0
 11
300.93928284332708
 21
183.9819163305971
 31
0.0
 12
301.589282843327
 22
184.09024966393051
 32
0.0
 13
301.589282843327
 23
184.09024966393051
 33
0.0
  0
INSERT
  5
2C99
  8
标注
  2
*U240
 10
0.0
 20
0.0
 30
0.0
  0
POINT
  5
2C9A
  8
DEFPOINTS
 62
     0
 10
291.11684189844527
 20
195.21716870551171
 30
0.0
  0
POINT
  5
2C9B
  8
DEFPOINTS
 62
     0
 10
301.589282843327
 20
195.2417750047241
 30
0.0
  0
POINT
  5
2C9C
  8
DEFPOINTS
 62
     0
 10
301.589282843327
 20
184.09024966393051
 30
0.0
  0
ENDBLK
  5
2C92
  8
0
  0
BLOCK
  8
0
  2
*D200
 70
     1
 10
0.0
 20
0.0
 30
0.0
  3
*D200
  1

  0
LINE
  5
2CFA
  8
标注
 10
289.809755284272
 20
190.30665689448799
 30
0.0
 11
289.809755284272
 21
183.80201116873181
 31
0.0
  0
LINE
  5
2CFB
  8
标注
 10
272.09321985120113
 20
190.30665689448799
 30
0.0
 11
272.09321985120113
 21
183.80201116873181
 31
0.0
  0
LINE
  5
2CFC
  8
标注
 10
289.15975528427202
 20
184.1220111687318
 30
0.0
 11
282.34315423440319
 21
184.1220111687318
 31
0.0
  0
LINE
  5
2CFD
  8
标注
 10
272.7432198512011
 20
184.1220111687318
 30
0.0
 11
279.55982090106988
 21
184.1220111687318
 31
0.0
  0
SOLID
  5
2CFE
  8
标注
 10
289.15975528427202
 20
184.23034450206509
 30
0.0
 11
289.15975528427202
 21
184.01367783539851
 31
0.0
 12
289.809755284272
 22
184.1220111687318
 32
0.0
 13
289.809755284272
 23
184.1220111687318
 33
0.0
  0
SOLID
  5
2CFF
  8
标注
 10
272.7432198512011
 20
184.23034450206509
 30
0.0
 11
272.7432198512011
 21
184.01367783539851
 31
0.0
 12
272.09321985120113
 22
184.1220111687318
 32
0.0
 13
272.09321985120113
 23
184.1220111687318
 33
0.0
  0
INSERT
  5
2D00
  8
标注
  2
*U243
 10
0.0
 20
0.0
 30
0.0
  0
POINT
  5
2D01
  8
DEFPOINTS
 62
     0
 10
289.809755284272
 20
191.18665689448801
 30
0.0
  0
POINT
  5
2D02
  8
DEFPOINTS
 62
     0
 10
272.09321985120113
 20
191.18665689448801
 30
0.0
  0
POINT
  5
2D03
  8
DEFPOINTS
 62
     0
 10
272.09321985120113
 20
184.1220111687318
 30
0.0
  0
ENDBLK
  5
2C9F
  8
0
  0
BLOCK
  8
0
  2
*D201
 70
     1
 10
0.0
 20
0.0
 30
0.0
  3
*D201
  1

  0
LINE
  5
2D2B
  8
标注
 10
271.06861355198851
 20
190.30665689448799
 30
0.0
 11
271.06861355198851
 21
181.69305692710029
 31
0.0
  0
LINE
  5
2D2C
  8
标注
 10
302.5646765441146
 20
189.5192553196849
 30
0.0
 11
302.5646765441146
 21
181.69305692710029
 31
0.0
  0
LINE
  5
2D2D
  8
标注
 10
271.71861355198848
 20
182.01305692710031
 30
0.0
 11
285.74997838138489
 21
182.01305692710031
 31
0.0
  0
LINE
  5
2D2E
  8
标注
 10
301.91467654411463
 20
182.01305692710031
 30
0.0
 11
287.88331171471822
 21
182.01305692710031
 31
0.0
  0
INSERT
  5
2D2F
  8
标注
  2
*U250
 10
0.0
 20
0.0
 30
0.0
  0
SOLID
  5
2D30
  8
标注
 10
271.71861355198848
 20
182.1213902604336
 30
0.0
 11
271.71861355198848
 21
181.90472359376699
 31
0.0
 12
271.06861355198851
 22
182.01305692710031
 32
0.0
 13
271.06861355198851
 23
182.01305692710031
 33
0.0
  0
SOLID
  5
2D31
  8
标注
 10
301.91467654411463
 20
182.1213902604336
 30
0.0
 11
301.91467654411463
 21
181.90472359376699
 31
0.0
 12
302.5646765441146
 22
182.01305692710031
 32
0.0
 13
302.5646765441146
 23
182.01305692710031
 33
0.0
  0
POINT
  5
2D32
  8
DEFPOINTS
 62
     0
 10
271.06861355198851
 20
191.18665689448801
 30
0.0
  0
POINT
  5
2D33
  8
DEFPOINTS
 62
     0
 10
302.5646765441146
 20
190.3992553196849
 30
0.0
  0
POINT
  5
2D34
  8
DEFPOINTS
 62
     0
 10
302.5646765441146
 20
182.01305692710031
 30
0.0
  0
ENDBLK
  5
2CAC
  8
0
  0
BLOCK
  8
0
  2
*D202
 70
     1
 10
0.0
 20
0.0
 30
0.0
  3
*D202
  1

  0
LINE
  5
2CBA
  8
标注
 10
280.07148756773671
 20
205.75358602834629
 30
0.0
 11
267.90867610902569
 21
205.75358602834629
 31
0.0
  0
LINE
  5
2CBB
  8
标注
 10
275.15022772521678
 20
187.24964902047219
 30
0.0
 11
267.90867610902569
 21
187.24964902047219
 31
0.0
  0
LINE
  5
2CBC
  8
标注
 10
268.22867610902568
 20
205.1035860283462
 30
0.0
 11
268.22867610902568
 21
197.56828419107589
 31
0.0
  0
LINE
  5
2CBD
  8
标注
 10
268.22867610902568
 20
187.89964902047231
 30
0.0
 11
268.22867610902568
 21
195.43495085774259
 31
0.0
  0
SOLID
  5
2CBE
  8
标注
 10
268.12034277569239
 20
205.1035860283462
 30
0.0
 11
268.33700944235909
 21
205.1035860283462
 31
0.0
 12
268.22867610902568
 22
205.75358602834629
 32
0.0
 13
268.22867610902568
 23
205.75358602834629
 33
0.0
  0
SOLID
  5
2CBF
  8
标注
 10
268.12034277569239
 20
187.89964902047231
 30
0.0
 11
268.33700944235909
 21
187.89964902047231
 31
0.0
 12
268.22867610902568
 22
187.24964902047219
 32
0.0
 13
268.22867610902568
 23
187.24964902047219
 33
0.0
  0
INSERT
  5
2CC0
  8
标注
  2
*U241
 10
0.0
 20
0.0
 30
0.0
  0
POINT
  5
2CC1
  8
DEFPOINTS
 62
     0
 10
280.95148756773671
 20
205.75358602834629
 30
0.0
  0
POINT
  5
2CC2
  8
DEFPOINTS
 62
     0
 10
276.03022772521689
 20
187.24964902047219
 30
0.0
  0
POINT
  5
2CC3
  8
DEFPOINTS
 62
     0
 10
268.22867610902568
 20
187.24964902047219
 30
0.0
  0
ENDBLK
  5
2CB9
  8
0
  0
BLOCK
  8
0
  2
*D203
 70
     1
 10
0.0
 20
0.0
 30
0.0
  3
*D203
  1

  0
LINE
  5
2D04
  8
标注
 10
278.39243244962631
 20
199.1830699387618
 30
0.0
 11
277.26000396143218
 21
200.41619342967891
 31
0.0
  0
LINE
  5
2D05
  8
标注
 10
274.57133512402999
 20
203.34393742169419
 30
0.0
 11
275.67047647265349
 21
202.14706094697101
 31
0.0
  0
INSERT
  5
2D06
  8
标注
  2
*U244
 10
0.0
 20
0.0
 30
0.0
  0
SOLID
  5
2D07
  8
标注
 10
274.65112688901149
 20
203.41721351160251
 30
0.0
 11
274.49154335904842
 21
203.27066133178599
 31
0.0
 12
274.13167858458058
 22
203.82268801158361
 32
0.0
 13
274.13167858458058
 23
203.82268801158361
 33
0.0
  0
POINT
  5
2D08
  8
DEFPOINTS
 62
     0
 10
274.13167858458058
 20
203.82268801158361
 30
0.0
  0
POINT
  5
2D09
  8
DEFPOINTS
 62
     0
 10
278.39243244962631
 20
199.1830699387618
 30
0.0
  0
ENDBLK
  5
2CC6
  8
0
  0
BLOCK
  8
0
  2
*D204
 70
     1
 10
0.0
 20
0.0
 30
0.0
  3
*D204
  1

  0
LINE
  5
2D0A
  8
标注
 10
284.3543291984198
 20
203.11782677477149
 30
0.0
 11
284.69505500487151
 21
204.70670402768249
 31
0.0
  0
INSERT
  5
2D0B
  8
标注
  2
*U245
 10
0.0
 20
0.0
 30
0.0
  0
SOLID
  5
2D0C
  8
标注
 10
284.58912985467742
 20
204.729419081446
 30
0.0
 11
284.80098015506547
 21
204.6839889739191
 31
0.0
 12
284.8313453274522
 22
205.3422549288469
 32
0.0
 13
284.8313453274522
 23
205.3422549288469
 33
0.0
  0
POINT
  5
2D0D
  8
DEFPOINTS
 62
     0
 10
284.8313453274522
 20
205.3422549288469
 30
0.0
  0
POINT
  5
2D0E
  8
DEFPOINTS
 62
     0
 10
280.95148756773648
 20
187.24964902047219
 30
0.0
  0
ENDBLK
  5
2CCF
  8
0
  0
BLOCK
  8
0
  2
*D205
 70
     1
 10
0.0
 20
0.0
 30
0.0
  3
*D205
  1

  0
LINE
  5
2D0F
  8
标注
 10
272.87561435172711
 20
187.85663351617919
 30
0.0
 11
272.4285912052477
 21
187.38475396956619
 31
0.0
  0
INSERT
  5
2D10
  8
标注
  2
*U246
 10
0.0
 20
0.0
 30
0.0
  0
LINE
  5
2D11
  8
标注
 10
276.03022772521689
 20
191.18665689448801
 30
0.0
 11
273.32263749820652
 21
188.32851306279221
 31
0.0
  0
SOLID
  5
2D12
  8
标注
 10
272.79696776062502
 20
187.93113737392571
 30
0.0
 11
272.95426094282931
 21
187.78212965843261
 31
0.0
 12
273.32263749820652
 22
188.32851306279221
 32
0.0
 13
273.32263749820652
 23
188.32851306279221
 33
0.0
  0
POINT
  5
2D13
  8
DEFPOINTS
 62
     0
 10
273.32263749820652
 20
188.32851306279221
 30
0.0
  0
POINT
  5
2D14
  8
DEFPOINTS
 62
     0
 10
276.03022772521689
 20
191.18665689448801
 30
0.0
  0
ENDBLK
  5
2CD7
  8
0
  0
BLOCK
  8
0
  2
*D206
 70
     1
 10
0.0
 20
0.0
 30
0.0
  3
*D206
  1

  0
LINE
  5
2D15
  8
标注
 10
283.51054268584681
 20
199.1830699387618
 30
0.0
 11
284.8751798117471
 21
200.15299433753779
 31
0.0
  0
LINE
  5
2D16
  8
标注
 10
288.11517010960722
 20
202.45583776898781
 30
0.0
 11
286.79064577400402
 21
201.51442378757741
 31
0.0
  0
INSERT
  5
2D17
  8
标注
  2
*U247
 10
0.0
 20
0.0
 30
0.0
  0
SOLID
  5
2D18
  8
标注
 10
288.0524091775132
 20
202.54413939136131
 30
0.0
 11
288.17793104170119
 21
202.36753614661421
 31
0.0
 12
288.64497984384849
 22
202.83240336155191
 32
0.0
 13
288.64497984384849
 23
202.83240336155191
 33
0.0
  0
POINT
  5
2D19
  8
DEFPOINTS
 62
     0
 10
288.64497984384849
 20
202.83240336155191
 30
0.0
  0
POINT
  5
2D1A
  8
DEFPOINTS
 62
     0
 10
283.51054268584681
 20
199.1830699387618
 30
0.0
  0
ENDBLK
  5
2CE0
  8
0
  0
BLOCK
  8
0
  2
*D207
 70
     1
 10
0.0
 20
0.0
 30
0.0
  3
*D207
  1

  0
LINE
  5
2D1B
  8
标注
 10
291.73293685927069
 20
187.76186498751349
 30
0.0
 11
291.27489010411068
 21
187.30067828986549
 31
0.0
  0
INSERT
  5
2D1C
  8
标注
  2
*U248
 10
0.0
 20
0.0
 30
0.0
  0
LINE
  5
2D1D
  8
标注
 10
294.41047122271613
 20
190.4577540359692
 30
0.0
 11
292.19098361443059
 21
188.22305168516149
 31
0.0
  0
SOLID
  5
2D1E
  8
标注
 10
291.65607240966261
 20
187.8382061133735
 30
0.0
 11
291.8098013088786
 21
187.68552386165351
 31
0.0
 12
292.19098361443059
 22
188.22305168516149
 32
0.0
 13
292.19098361443059
 23
188.22305168516149
 33
0.0
  0
POINT
  5
2D1F
  8
DEFPOINTS
 62
     0
 10
292.19098361443059
 20
188.22305168516149
 30
0.0
  0
POINT
  5
2D20
  8
DEFPOINTS
 62
     0
 10
294.41047122271613
 20
190.4577540359692
 30
0.0
  0
ENDBLK
  5
2CE9
  8
0
  0
BLOCK
  8
0
  2
*D211
 70
     1
 10
0.0
 20
0.0
 30
0.0
  3
*D211
  1

  0
LINE
  5
2E70
  8
标注
 62
     0
 10
205.6714147196457
 20
213.14185567497719
 30
0.0
 11
209.87774746677241
 21
213.14185567497719
 31
0.0
  0
LINE
  5
2E71
  8
标注
 62
     0
 10
208.19736362708639
 20
218.4568163048894
 30
0.0
 11
209.87774746677241
 21
218.4568163048894
 31
0.0
  0
LINE
  5
2E72
  8
标注
 62
     0
 10
209.6977474667724
 20
213.3218556749772
 30
0.0
 11
209.6977474667724
 21
215.61933598993329
 31
0.0
  0
LINE
  5
2E73
  8
标注
 62
     0
 10
209.6977474667724
 20
218.27681630488939
 30
0.0
 11
209.6977474667724
 21
215.9793359899333
 31
0.0
  0
SOLID
  5
2E74
  8
标注
 62
     0
 10
209.6677474667724
 20
213.3218556749772
 30
0.0
 11
209.7277474667724
 21
213.3218556749772
 31
0.0
 12
209.6977474667724
 22
213.14185567497719
 32
0.0
 13
209.6977474667724
 23
213.14185567497719
 33
0.0
  0
SOLID
  5
2E75
  8
标注
 62
     0
 10
209.6677474667724
 20
218.27681630488939
 30
0.0
 11
209.7277474667724
 21
218.27681630488939
 31
0.0
 12
209.6977474667724
 22
218.4568163048894
 32
0.0
 13
209.6977474667724
 23
218.4568163048894
 33
0.0
  0
TEXT
  8
标注
  40
0.18
  5
2F67
  62
0
  72
0
  71
0
 10
209.338
 20
215.481
 30
0.000000
  1
5.3150"
  0
POINT
  5
2E77
  8
DEFPOINTS
 62
     0
 10
205.6089147196457
 20
213.14185567497719
 30
0.0
  0
POINT
  5
2E78
  8
DEFPOINTS
 62
     0
 10
208.13486362708639
 20
218.4568163048894
 30
0.0
  0
POINT
  5
2E79
  8
DEFPOINTS
 62
     0
 10
209.6977474667724
 20
218.4568163048894
 30
0.0
  0
ENDBLK
  5
2E6F
  8
0
  0
BLOCK
  8
0
  2
*U212
 70
     1
 10
0.0
 20
0.0
 30
0.0
  3
*U212
  1

  0
TEXT
  5
2EAD
  8
标注
 10
98.606171223149246
 20
223.732117268558
 30
0.0
 40
0.65
  1
7"
 50
90.0
  0
ENDBLK
  5
2EAF
  8
0
  0
BLOCK
  8
0
  2
*U213
 70
     1
 10
0.0
 20
0.0
 30
0.0
  3
*U213
  1

  0
TEXT
  5
2EB1
  8
标注
 10
98.807698408329415
 20
197.50155036067099
 30
0.0
 40
0.65
  1
16"
 50
90.0
  0
ENDBLK
  5
2EB3
  8
0
  0
BLOCK
  8
0
  2
*U214
 70
     1
 10
0.0
 20
0.0
 30
0.0
  3
*U214
  1

  0
TEXT
  5
2EB5
  8
标注
 10
101.4120415025554
 20
197.50155036067119
 30
0.0
 40
0.65
  1
18"
 50
90.0
  0
ENDBLK
  5
2EB7
  8
0
  0
BLOCK
  8
0
  2
*U215
 70
     1
 10
0.0
 20
0.0
 30
0.0
  3
*U215
  1

  0
TEXT
  5
2EB9
  8
标注
 10
87.747526379039897
 20
186.67502501987741
 30
0.0
 40
0.65
  1
10 1/2"
  0
ENDBLK
  5
2EBB
  8
0
  0
BLOCK
  8
0
  2
*U216
 70
     1
 10
0.0
 20
0.0
 30
0.0
  3
*U216
  1

  0
TEXT
  5
2EBD
  8
标注
 10
72.183451575890246
 20
186.70678652467859
 30
0.0
 40
0.65
  1
17 3/4"
  0
ENDBLK
  5
2EBF
  8
0
  0
BLOCK
  8
0
  2
*U217
 70
     1
 10
0.0
 20
0.0
 30
0.0
  3
*U217
  1

  0
TEXT
  5
2EC1
  8
标注
 10
78.156942389538614
 20
184.5978322830471
 30
0.0
 40
0.65
  1
31 1/2"
  0
ENDBLK
  5
2EC3
  8
0
  0
BLOCK
  8
0
  2
*U218
 70
     1
 10
0.0
 20
0.0
 30
0.0
  3
*U218
  1

  0
TEXT
  5
2EC5
  8
标注
 10
61.735640117179429
 20
197.56972621368951
 30
0.0
 40
0.65
  1
18 1/2"
 50
90.0
  0
ENDBLK
  5
2EC7
  8
0
  0
BLOCK
  8
0
  2
*U219
 70
     1
 10
0.0
 20
0.0
 30
0.0
  3
*U219
  1

  0
TEXT
  5
2EC9
  8
标注
 10
59.32289916953394
 20
197.5155595470228
 30
0.0
 40
0.65
  1
20 1/2"
 50
90.0
  0
ENDBLK
  5
2ECB
  8
0
  0
BLOCK
  8
0
  2
*U220
 70
     1
 10
0.0
 20
0.0
 30
0.0
  3
*U220
  1

  0
TEXT
  5
2ECD
  8
标注
 10
61.778004644758902
 20
222.73605427643221
 30
0.0
 40
0.65
  1
9"
 50
90.0
  0
ENDBLK
  5
2ECF
  8
0
  0
BLOCK
  8
0
  2
*U221
 70
     1
 10
0.0
 20
0.0
 30
0.0
  3
*U221
  1

  0
TEXT
  5
2ED1
  8
标注
 10
68.088859311903732
 20
205.4078260442152
 30
0.0
 40
0.65
  1
R6 1/4"
 50
312.5625486775516
  0
ENDBLK
  5
2ED3
  8
0
  0
BLOCK
  8
0
  2
*U222
 70
     1
 10
0.0
 20
0.0
 30
0.0
  3
*U222
  1

  0
TEXT
  5
2ED5
  8
标注
 10
77.107966506618027
 20
202.48022318997681
 30
0.0
 40
0.65
  1
R18 1/2"
 50
77.896551129253965
  0
ENDBLK
  5
2ED7
  8
0
  0
BLOCK
  8
0
  2
*U223
 70
     1
 10
0.0
 20
0.0
 30
0.0
  3
*U223
  1

  0
TEXT
  5
2ED9
  8
标注
 10
67.77213315615775
 20
192.10372964537549
 30
0.0
 40
0.65
  1
R3 7/8"
 50
46.549478118728373
  0
ENDBLK
  5
2EDB
  8
0
  0
BLOCK
  8
0
  2
*U224
 70
     1
 10
0.0
 20
0.0
 30
0.0
  3
*U224
  1

  0
TEXT
  5
2EDD
  8
标注
 10
77.613730394587165
 20
202.3488827736914
 30
0.0
 40
0.65
  1
R6 1/4"
 50
35.403550350095543
  0
ENDBLK
  5
2EDF
  8
0
  0
BLOCK
  8
0
  2
*U225
 70
     1
 10
0.0
 20
0.0
 30
0.0
  3
*U225
  1

  0
TEXT
  5
2EE1
  8
标注
 10
86.660571944854155
 20
191.9680806581006
 30
0.0
 40
0.65
  1
R3 1/8"
 50
45.195711712000531
  0
ENDBLK
  5
2EE3
  8
0
  0
BLOCK
  8
0
  2
*U226
 70
     1
 10
0.0
 20
0.0
 30
0.0
  3
*U226
  1

  0
ARC
  5
2EE5
  8
0
 10
20.38181259859482
 20
145.51004216295709
 30
0.0
 40
3.9370078740157481
 50
270.0
 51
0.0
  0
LINE
  5
2EE6
  8
0
 10
24.318820472610579
 20
153.5064552072308
 30
0.0
 11
24.318820472610579
 21
145.51004216295709
 31
0.0
  0
LINE
  5
2EE7
  8
0
 10
20.38181259859482
 20
141.5730342889413
 30
0.0
 11
10.539292913555411
 21
141.5730342889413
 31
0.0
  0
ARC
  5
2EE8
  8
0
 10
18.01960787418534
 20
153.5064552072308
 30
0.0
 40
6.2992125984251963
 50
0.0
 51
77.896551129254263
  0
ARC
  5
2EE9
  8
0
 10
10.539292913555411
 20
145.51004216295709
 30
0.0
 40
3.9370078740157481
 50
180.0
 51
270.0
  0
ARC
  5
2EEA
  8
0
 10
15.460552756075121
 20
141.5730342889413
 30
0.0
 40
18.503937007874011
 50
77.896551129254235
 51
102.10344887074569
  0
LINE
  5
2EEB
  8
0
 10
6.6022850395396508
 20
145.51004216295709
 30
0.0
 11
6.6022850395396508
 21
153.5064552072308
 31
0.0
  0
ARC
  5
2EEC
  8
0
 10
12.901497637964891
 20
153.5064552072308
 30
0.0
 40
6.2992125984251963
 50
102.10344887074569
 51
180.0
  0
ENDBLK
  5
2EEE
  8
0
  0
BLOCK
  8
0
  2
*U227
 70
     1
 10
0.0
 20
0.0
 30
0.0
  3
*U227
  1

  0
ARC
  5
2EF0
  8
0
 10
28.919536411054651
 20
144.7811393044382
 30
0.0
 40
3.1496062992125982
 50
183.4487390259487
 51
266.5502602591726
  0
ARC
  5
2EF1
  8
0
 10
30.862127559224749
 20
177.00610515508311
 30
0.0
 40
35.43307086614174
 50
266.55026025917368
 51
273.4497397408262
  0
ARC
  5
2EF2
  8
0
 10
108.30307244111449
 20
149.56516027319319
 30
0.0
 40
82.677165354330725
 50
176.55126097405039
 51
183.44873902594949
  0
ARC
  5
2EF3
  8
0
 10
32.804718707394841
 20
144.7811393044382
 30
0.0
 40
3.1496062992125982
 50
273.44973974082541
 51
356.55126097405082
  0
ARC
  5
2EF4
  8
0
 10
28.919536411054651
 20
154.34918124194829
 30
0.0
 40
3.1496062992125982
 50
93.449739740823347
 51
176.55126097405179
  0
ARC
  5
2EF5
  8
0
 10
-46.578817322665031
 20
149.5651602731933
 30
0.0
 40
82.677165354330725
 50
356.55126097405048
 51
3.4487390259495232
  0
ARC
  5
2EF6
  8
0
 10
30.862127559224749
 20
122.12421539130349
 30
0.0
 40
35.43307086614174
 50
86.550260259173854
 51
93.449739740825905
  0
ARC
  5
2EF7
  8
0
 10
32.804718707394841
 20
154.34918124194829
 30
0.0
 40
3.1496062992125982
 50
3.4487390259476922
 51
86.550260259174593
  0
ENDBLK
  5
2EF9
  8
0
  0
BLOCK
  8
0
  2
*U228
 70
     1
 10
0.0
 20
0.0
 30
0.0
  3
*U228
  1

  0
ARC
  5
2EFB
  8
0
 10
32.924135433240508
 20
144.72264058815389
 30
0.0
 40
4.1496062992125982
 50
270.0
 51
0.0
  0
LINE
  5
2EFC
  8
0
 10
37.073741732453193
 20
144.72264058815389
 30
0.0
 11
37.073741732453193
 21
154.40767995823271
 31
0.0
  0
LINE
  5
2EFD
  8
0
 10
10.51468661434285
 20
140.5730342889413
 30
0.0
 11
32.924135433240508
 21
140.5730342889413
 31
0.0
  0
ARC
  5
2EFE
  8
0
 10
32.924135433240508
 20
154.40767995823271
 30
0.0
 40
4.1496062992125982
 50
0.0000000000011773
 51
90.0
  0
ARC
  5
2EFF
  8
0
 10
10.51468661434285
 20
145.51004216295709
 30
0.0
 40
4.9370078740158041
 50
180.0
 51
270.0
  0
LINE
  5
2F00
  8
0
 10
32.924135433240508
 20
158.55728625744521
 30
0.0
 11
24.738250196923111
 21
158.55728625744521
 31
0.0
  0
LINE
  5
2F01
  8
0
 10
5.5776787403270873
 20
153.5064552072308
 30
0.0
 11
5.5776787403270873
 21
145.51004216295709
 31
0.0
  0
ARC
  5
2F02
  8
0
 10
24.738250196923111
 20
162.494294131461
 30
0.0
 40
3.9370078740157481
 50
233.12043659369479
 51
270.0
  0
ARC
  5
2F03
  8
0
 10
12.87689133875233
 20
153.5064552072308
 30
0.0
 40
7.2992125984252088
 50
102.1034488707469
 51
180.0
  0
ARC
  5
2F04
  8
0
 10
17.995001574972768
 20
153.5064552072308
 30
0.0
 40
7.2992125984252052
 50
53.12043659369553
 51
77.896551129254036
  0
ARC
  5
2F05
  8
0
 10
15.435946456862551
 20
141.5730342889413
 30
0.0
 40
19.503937007874011
 50
77.896551129254163
 51
102.10344887074621
  0
ENDBLK
  5
2F07
  8
0
  0
BLOCK
  8
0
  2
*U229
 70
     1
 10
0.0
 20
0.0
 30
0.0
  3
*U229
  1

  0
TEXT
  5
2F09
  8
标注
 10
17.81058089928176
 20
166.08678089004329
 30
0.0
 40
0.7874015748031497
  1
FRONT VIEW
  0
ENDBLK
  5
2F0B
  8
0
  0
BLOCK
  8
0
  2
*U230
 70
     1
 10
0.0
 20
0.0
 30
0.0
  3
*U230
  1

  0
TEXT
  5
2F0D
  8
标注
 10
17.61318326273668
 20
132.00950405590319
 30
0.0
 40
0.7874015748031497
  1
OVERHEAD VIEW
  0
ENDBLK
  5
2F0F
  8
0
  0
BLOCK
  8
0
  2
*U231
 70
     1
 10
0.0
 20
0.0
 30
0.0
  3
*U231
  1

  0
TEXT
  5
2F11
  8
标注
 10
20.466264316375941
 20
94.953003518888906
 30
0.0
 40
0.7874015748031497
  1
1/4" 
  0
TEXT
  5
2F12
  8
标注
 10
23.878337807189592
 20
94.953003518888906
 30
0.0
 40
0.7874015748031497
  1
REVEAL CUTOUT
  0
ENDBLK
  5
2F14
  8
0
  0
BLOCK
  8
0
  2
*U232
 70
     1
 10
0.0
 20
0.0
 30
0.0
  3
*U232
  1

  0
TEXT
  5
2F16
  8
标注
 10
20.376030029494959
 20
92.98449958188101
 30
0.0
 40
0.7874015748031497
  1
FLUSH CUTOUT
  0
ENDBLK
  5
2F18
  8
0
  0
BLOCK
  8
0
  2
*U233
 70
     1
 10
0.0
 20
0.0
 30
0.0
  3
*U233
  1

  0
TEXT
  5
2F1A
  8
标注
 10
20.466264316375941
 20
91.015995644873101
 30
0.0
 40
0.7874015748031497
  1
1/4" 
  0
TEXT
  5
2F1B
  8
标注
 10
23.878337807189592
 20
91.015995644873101
 30
0.0
 40
0.7874015748031497
  1
OVERHANG CUTOUT
  0
ENDBLK
  5
2F1D
  8
0
  0
BLOCK
  8
0
  2
*U234
 70
     1
 10
0.0
 20
0.0
 30
0.0
  3
*U234
  1

  0
TEXT
  5
2F1F
  8
标注
 10
15.65697802730706
 20
59.636094362523409
 30
0.0
 40
0.7874015748031497
  1
1/4" 
  0
TEXT
  5
2F20
  8
标注
 10
19.069051518120709
 20
59.636094362523409
 30
0.0
 40
0.7874015748031497
  1
REVEAL CUTOUT
  0
ENDBLK
  5
2F22
  8
0
  0
BLOCK
  8
0
  2
*U235
 70
     1
 10
0.0
 20
0.0
 30
0.0
  3
*U235
  1

  0
TEXT
  5
2F24
  8
标注
 10
16.91939075151388
 20
30.081146663397821
 30
0.0
 40
0.7874015748031497
  1
FLUSH CUTOUT
  0
ENDBLK
  5
2F26
  8
0
  0
BLOCK
  8
0
  2
*U236
 70
     1
 10
0.0
 20
0.0
 30
0.0
  3
*U236
  1

  0
TEXT
  5
2F28
  8
标注
 10
13.46759366638228
 20
0.3815074098766461
 30
0.0
 40
0.7874015748031497
  1
1/4" 
  0
TEXT
  5
2F29
  8
标注
 10
16.879667157195929
 20
0.3815074098766461
 30
0.0
 40
0.7874015748031497
  1
OVERHANG CUTOUT
  0
ENDBLK
  5
2F2B
  8
0
  0
BLOCK
  8
0
  2
*U237
 70
     1
 10
0.0
 20
0.0
 30
0.0
  3
*U237
  1

  0
TEXT
  5
2F2D
  8
标注
 10
268.59604063660521
 20
220.04294558715191
 30
0.0
 40
0.65
  1
9
 50
90.0
  0
ENDBLK
  5
2F2F
  8
0
  0
BLOCK
  8
0
  2
*U238
 70
     1
 10
0.0
 20
0.0
 30
0.0
  3
*U238
  1

  0
TEXT
  5
2F31
  8
标注
 10
305.42420721499548
 20
220.44317524594439
 30
0.0
 40
0.65
  1
7.01
 50
90.0
  0
ENDBLK
  5
2F33
  8
0
  0
BLOCK
  8
0
  2
*U239
 70
     1
 10
0.0
 20
0.0
 30
0.0
  3
*U239
  1

  0
TEXT
  5
2F35
  8
标注
 10
305.62573440017559
 20
194.0501083380575
 30
0.0
 40
0.65
  1
15.98
 50
90.0
  0
ENDBLK
  5
2F37
  8
0
  0
BLOCK
  8
0
  2
*U240
 70
     1
 10
0.0
 20
0.0
 30
0.0
  3
*U240
  1

  0
TEXT
  5
2F39
  8
标注
 10
295.21556237088618
 20
183.7652496639304
 30
0.0
 40
0.65
  1
10.47
  0
ENDBLK
  5
2F3B
  8
0
  0
BLOCK
  8
0
  2
*U241
 70
     1
 10
0.0
 20
0.0
 30
0.0
  3
*U241
  1

  0
TEXT
  5
2F3D
  8
标注
 10
268.55367610902567
 20
195.63495085774261
 30
0.0
 40
0.65
  1
18.5
 50
90.0
  0
ENDBLK
  5
2F3F
  8
0
  0
BLOCK
  8
0
  2
*U242
 70
     1
 10
0.0
 20
0.0
 30
0.0
  3
*U242
  1

  0
TEXT
  5
2F41
  8
标注
 10
266.14093516138018
 20
195.58078419107591
 30
0.0
 40
0.65
  1
20.5
 50
90.0
  0
ENDBLK
  5
2F43
  8
0
  0
BLOCK
  8
0
  2
*U243
 70
     1
 10
0.0
 20
0.0
 30
0.0
  3
*U243
  1

  0
TEXT
  5
2F45
  8
标注
 10
279.75982090106987
 20
183.79701116873181
 30
0.0
 40
0.65
  1
17.72
  0
ENDBLK
  5
2F47
  8
0
  0
BLOCK
  8
0
  2
*U244
 70
     1
 10
0.0
 20
0.0
 30
0.0
  3
*U244
  1

  0
TEXT
  5
2F49
  8
标注
 10
275.56638011292409
 20
201.77992480343411
 30
0.0
 40
0.65
  1
R6.3
 50
312.56254867755138
  0
ENDBLK
  5
2F4B
  8
0
  0
BLOCK
  8
0
  2
*U245
 70
     1
 10
0.0
 20
0.0
 30
0.0
  3
*U245
  1

  0
TEXT
  5
2F4D
  8
标注
 10
284.13043798233542
 20
200.5237741857766
 30
0.0
 40
0.65
  1
R18.5
 50
77.896551129254036
  0
ENDBLK
  5
2F4F
  8
0
  0
BLOCK
  8
0
  2
*U246
 70
     1
 10
0.0
 20
0.0
 30
0.0
  3
*U246
  1

  0
TEXT
  5
2F51
  8
标注
 10
275.11169615222991
 20
189.7444804271438
 30
0.0
 40
0.65
  1
R3.94
 50
46.549478118728359
  0
ENDBLK
  5
2F53
  8
0
  0
BLOCK
  8
0
  2
*U247
 70
     1
 10
0.0
 20
0.0
 30
0.0
  3
*U247
  1

  0
TEXT
  5
2F55
  8
标注
 10
285.22648098779581
 20
200.00395580659071
 30
0.0
 40
0.65
  1
R6.3
 50
35.4035503500956
  0
ENDBLK
  5
2F57
  8
0
  0
BLOCK
  8
0
  2
*U248
 70
     1
 10
0.0
 20
0.0
 30
0.0
  3
*U248
  1

  0
TEXT
  5
2F59
  8
标注
 10
294.01299581772059
 20
189.5963564494098
 30
0.0
 40
0.65
  1
R3.15
 50
45.19571171200117
  0
ENDBLK
  5
2F5B
  8
0
  0
BLOCK
  8
0
  2
*U249
 70
     1
 10
0.0
 20
0.0
 30
0.0
  3
*U249
  1

  0
TEXT
  5
2F5D
  8
标注
 10
308.23007749440171
 20
194.05010833805761
 30
0.0
 40
0.65
  1
17.98
 50
90.0
  0
ENDBLK
  5
2F5F
  8
0
  0
BLOCK
  8
0
  2
*U250
 70
     1
 10
0.0
 20
0.0
 30
0.0
  3
*U250
  1

  0
TEXT
  5
2F61
  8
标注
 10
285.94997838138488
 20
181.68805692710029
 30
0.0
 40
0.65
  1
31.5
  0
ENDBLK
  5
2F63
  8
0
  0
ENDSEC
  0
SECTION
  2
ENTITIES
  0
LINE
  5
166F
  8
0
  6
ACISOTGL
 62
     4
 10
205.63486362708639
 20
213.14185567497719
 30
0.0
 11
205.8559279134802
 21
213.14185567497719
 31
0.0
  0
LINE
  5
1670
  8
0
 10
205.66601620147549
 20
213.09461158049049
 30
0.0
 11
205.8559279134802
 21
213.09461158049049
 31
0.0
  0
LINE
  5
1671
  8
0
 10
207.37220393707821
 20
218.4568163048894
 30
0.0
 11
208.13486362708639
 21
218.4568163048894
 31
0.0
  0
LINE
  5
1672
  8
0
 10
207.37220393707821
 20
218.4095722104025
 30
0.0
 11
208.13486362708639
 21
218.4095722104025
 31
0.0
  0
ARC
  5
1673
  8
0
  6
ACISOTGL
 62
     4
 10
207.37220393707821
 20
218.25996591116521
 30
0.0
 40
0.1968503937
 50
90.0
 51
177.99999999144021
1001
GENIUS_GENODEF_13
1002
{
1000
HIER
1070
     0
1002
}
1002
{
1000
MANEDIT
1070
     0
1002
}
1002
{
1000
NOSEL
1070
     0
1002
}
1002
{
1000
BEHIND
1070
     0
1002
}
1002
{
1000
OTHER
1070
     0
1002
}
1002
{
1000
REACTOR
1002
}
1001
GENIUS_GENOBJ-N-FIL_13
1002
{
1000
OWNER
1000
GEN
1002
}
  0
ARC
  5
1674
  8
0
 10
207.37220393707821
 20
218.25996591116521
 30
0.0
 40
0.149606299212
 50
90.0
 51
177.99999999144021
1001
GENIUS_GENODEF_13
1002
{
1000
HIER
1070
     0
1002
}
1002
{
1000
MANEDIT
1070
     0
1002
}
1002
{
1000
NOSEL
1070
     0
1002
}
1002
{
1000
BEHIND
1070
     0
1002
}
1002
{
1000
OTHER
1070
     0
1002
}
1002
{
1000
REACTOR
1002
}
1001
GENIUS_GENOBJ-N-FIL_13
1002
{
1000
OWNER
1000
GEN
1002
}
  0
LINE
  5
1675
  8
0
  6
ACISOTGL
 62
     4
 10
207.03631078003809
 20
214.28173815919541
 30
0.0
 11
207.1754734593282
 21
218.26683589083359
 31
0.0
  0
LINE
  5
1676
  8
0
 10
207.08352609469279
 20
214.28008936407389
 30
0.0
 11
207.22268877398301
 21
218.26518709571201
 31
0.0
  0
ARC
  5
1677
  8
0
  6
ACISOTGL
 62
     4
 10
205.8559279134802
 20
214.3229580371767
 30
0.0
 40
1.1811023622000001
 50
270.0
 51
357.99999999144018
1001
GENIUS_GENODEF_13
1002
{
1000
HIER
1070
     0
1002
}
1002
{
1000
MANEDIT
1070
     0
1002
}
1002
{
1000
NOSEL
1070
     0
1002
}
1002
{
1000
BEHIND
1070
     0
1002
}
1002
{
1000
OTHER
1070
     0
1002
}
1002
{
1000
REACTOR
1002
}
1001
GENIUS_GENOBJ-N-FIL_13
1002
{
1000
OWNER
1000
GEN
1002
}
  0
ARC
  5
1678
  8
0
 10
205.8559279134802
 20
214.3229580371767
 30
0.0
 40
1.228346456688
 50
270.0
 51
357.99999999144018
1001
GENIUS_GENODEF_13
1002
{
1000
HIER
1070
     0
1002
}
1002
{
1000
MANEDIT
1070
     0
1002
}
1002
{
1000
NOSEL
1070
     0
1002
}
1002
{
1000
BEHIND
1070
     0
1002
}
1002
{
1000
OTHER
1070
     0
1002
}
1002
{
1000
REACTOR
1002
}
1001
GENIUS_GENOBJ-N-FIL_13
1002
{
1000
OWNER
1000
GEN
1002
}
  0
LINE
  5
1679
  8
0
  6
ACISOTGL
 62
     4
 10
200.94923241158679
 20
213.14185567497719
 30
0.0
 11
201.06793449324459
 21
213.14185567497719
 31
0.0
  0
LINE
  5
167A
  8
0
 10
200.94923241158679
 20
213.09461158049049
 30
0.0
 11
201.0367819188555
 21
213.09461158049049
 31
0.0
  0
LINE
  5
167B
  8
0
  6
ACISOTGL
 62
     4
 10
199.62968686573851
 20
218.26683589083359
 30
0.0
 11
199.76884954502879
 21
214.28173815919541
 31
0.0
  0
LINE
  5
167C
  8
0
 10
199.5824715510694
 20
218.26518709571201
 30
0.0
 11
199.72163423035951
 21
214.28008936407389
 31
0.0
  0
ARC
  5
167D
  8
0
  6
ACISOTGL
 62
     4
 10
199.43295638797409
 20
218.25996591116521
 30
0.0
 40
0.1968503937
 50
2.0000000085598222
 51
90.0
1001
GENIUS_GENOBJ-N-FIL_13
1002
{
1000
OWNER
1000
GEN
1002
}
1001
GENIUS_GENODEF_13
1002
{
1000
HIER
1070
     0
1002
}
1002
{
1000
MANEDIT
1070
     0
1002
}
1002
{
1000
NOSEL
1070
     0
1002
}
1002
{
1000
BEHIND
1070
     0
1002
}
1002
{
1000
OTHER
1070
     0
1002
}
1002
{
1000
REACTOR
1002
}
  0
ARC
  5
167E
  8
0
 10
199.43295638797409
 20
218.25996591116521
 30
0.0
 40
0.149606299212
 50
2.0000000085598222
 51
90.0
1001
GENIUS_GENOBJ-N-FIL_13
1002
{
1000
OWNER
1000
GEN
1002
}
1001
GENIUS_GENODEF_13
1002
{
1000
HIER
1070
     0
1002
}
1002
{
1000
MANEDIT
1070
     0
1002
}
1002
{
1000
NOSEL
1070
     0
1002
}
1002
{
1000
BEHIND
1070
     0
1002
}
1002
{
1000
OTHER
1070
     0
1002
}
1002
{
1000
REACTOR
1002
}
  0
ARC
  5
167F
  8
0
  6
ACISOTGL
 62
     4
 10
200.94923241158679
 20
214.3229580371767
 30
0.0
 40
1.1811023622000001
 50
182.00000000855979
 51
270.0
1001
GENIUS_GENOBJ-N-FIL_13
1002
{
1000
OWNER
1000
GEN
1002
}
1001
GENIUS_GENODEF_13
1002
{
1000
HIER
1070
     0
1002
}
1002
{
1000
MANEDIT
1070
     0
1002
}
1002
{
1000
NOSEL
1070
     0
1002
}
1002
{
1000
BEHIND
1070
     0
1002
}
1002
{
1000
OTHER
1070
     0
1002
}
1002
{
1000
REACTOR
1002
}
  0
ARC
  5
1680
  8
0
 10
200.94923241158679
 20
214.3229580371767
 30
0.0
 40
1.228346456688
 50
182.00000000855979
 51
270.0
1001
GENIUS_GENOBJ-N-FIL_13
1002
{
1000
OWNER
1000
GEN
1002
}
1001
GENIUS_GENODEF_13
1002
{
1000
HIER
1070
     0
1002
}
1002
{
1000
MANEDIT
1070
     0
1002
}
1002
{
1000
NOSEL
1070
     0
1002
}
1002
{
1000
BEHIND
1070
     0
1002
}
1002
{
1000
OTHER
1070
     0
1002
}
1002
{
1000
REACTOR
1002
}
  0
LINE
  5
1681
  8
0
 10
198.56793449325909
 20
218.4568163048894
 30
0.0
 11
199.43295638797409
 21
218.4568163048894
 31
0.0
  0
LINE
  5
1682
  8
0
 10
198.56793449325909
 20
218.4095722104025
 30
0.0
 11
199.43295638797409
 21
218.4095722104025
 31
0.0
  0
INSERT
  5
1683
  8
0
  2
*U165
 10
0.0
 20
0.0
 30
0.0
  0
INSERT
  5
1684
  8
0
  2
*U166
 10
0.0
 20
0.0
 30
0.0
  0
INSERT
  5
1685
  8
0
  2
*U167
 10
0.0
 20
0.0
 30
0.0
  0
POLYLINE
  5
1686
  8
0
 66
     1
 10
0.0
 20
0.0
 30
0.0
 70
     1
  0
VERTEX
  5
1BE7
  8
0
 10
202.5758085089924
 20
189.8997676821318
 30
0.0
  0
VERTEX
  5
1BE8
  8
0
 10
204.1899817373355
 20
189.8997676821318
 30
0.0
 42
0.4142135623730951
  0
VERTEX
  5
1BE9
  8
0
 10
207.14273764283419
 20
192.85252358761591
 30
0.0
  0
VERTEX
  5
1BEA
  8
0
 10
207.14273764283419
 20
203.01000390254291
 30
0.0
 42
0.4142135623730951
  0
VERTEX
  5
1BEB
  8
0
 10
204.1899817373355
 20
205.96275980805601
 30
0.0
  0
VERTEX
  5
1BEC
  8
0
 10
202.5758085089924
 20
205.96275980805601
 30
0.0
 42
0.4142135623730951
  0
VERTEX
  5
1BED
  8
0
 10
199.6230526034937
 20
203.01000390254291
 30
0.0
  0
VERTEX
  5
1BEE
  8
0
 10
199.6230526034937
 20
192.85252358761591
 30
0.0
 42
0.4142135623730951
  0
SEQEND
  5
1BEF
  8
0
  0
INSERT
  5
1687
  8
0
  2
*U168
 10
0.0
 20
0.0
 30
0.0
  0
LINE
  5
1688
  8
0
 10
199.43295638797409
 20
218.4568163048894
 30
0.0
 11
207.37220393707821
 21
218.4568163048894
 31
0.0
  0
LINE
  5
1689
  8
0
  6
ACISOTGL
 62
     4
 10
201.5797455168663
 20
212.94500528128211
 30
0.0
 11
205.1230526034646
 21
212.94500528128211
 31
0.0
  0
LINE
  5
168A
  8
0
 10
201.5766773749942
 20
212.89776118679541
 30
0.0
 11
205.1261207453513
 21
212.89776118679541
 31
0.0
  0
LINE
  5
168B
  8
0
  6
ACISOTGL
 62
     4
 10
201.06793449324459
 20
213.14185567497719
 30
0.0
 11
201.12698961135311
 21
213.00406039937619
 31
0.0
  0
LINE
  5
168C
  8
0
 10
201.0367819188555
 20
213.09461158049049
 30
0.0
 11
201.09417414294279
 21
212.96069639098229
 31
0.0
  0
LINE
  5
168D
  8
0
  6
ACISOTGL
 62
     4
 10
201.12698961135311
 20
213.00406039937619
 30
0.0
 11
201.5797455168663
 21
212.94500528128211
 31
0.0
  0
LINE
  5
168E
  8
0
 10
201.09417414294279
 20
212.96069639098229
 30
0.0
 11
201.5766773749942
 21
212.89776118679541
 31
0.0
  0
LINE
  5
168F
  8
0
  6
ACISOTGL
 62
     4
 10
205.63486362708639
 20
213.14185567497719
 30
0.0
 11
205.5758085089777
 21
213.00406039937619
 31
0.0
  0
LINE
  5
1690
  8
0
 10
205.66601620147549
 20
213.09461158049049
 30
0.0
 11
205.6086239774026
 21
212.96069639098229
 31
0.0
  0
LINE
  5
1691
  8
0
  6
ACISOTGL
 62
     4
 10
205.5758085089777
 20
213.00406039937619
 30
0.0
 11
205.1230526034646
 21
212.94500528128211
 31
0.0
  0
LINE
  5
1692
  8
0
 10
205.6086239774026
 20
212.96069639098229
 30
0.0
 11
205.1261207453513
 21
212.89776118679541
 31
0.0
  0
LINE
  5
1693
  8
0
  6
ACISOTGL
 62
     4
 10
201.06793449324459
 20
213.14185567497719
 30
0.0
 11
205.63486362708639
 21
213.14185567497719
 31
0.0
  0
LINE
  5
1694
  8
0
  6
ACISOTGL
 62
     4
 10
201.5797455168663
 20
212.94500528128211
 30
0.0
 11
201.5797455168663
 21
212.89776118679541
 31
0.0
  0
LINE
  5
1695
  8
0
  6
ACISOTGL
 62
     4
 10
205.1230526034646
 20
212.94500528128211
 30
0.0
 11
205.1230526034646
 21
212.89776118679541
 31
0.0
  0
LINE
  5
1696
  8
0
 10
208.13486362708639
 20
218.4095722104025
 30
0.0
 11
208.13486362708639
 21
218.4568163048894
 31
0.0
  0
LINE
  5
1697
  8
0
 10
201.0367819188555
 20
213.09461158049049
 30
0.0
 11
205.66601620147549
 21
213.09461158049049
 31
0.0
  0
LINE
  5
1698
  8
0
 10
199.43295638797409
 20
218.4095722104025
 30
0.0
 11
207.37220393707821
 21
218.4095722104025
 31
0.0
  0
POLYLINE
  5
1699
  8
0
 66
     1
 10
0.0
 20
0.0
 30
0.0
 70
     1
  0
VERTEX
  5
1BF4
  8
0
 10
202.58333477172849
 20
188.9160305265695
 30
0.0
  0
VERTEX
  5
1BF5
  8
0
 10
204.19750800005701
 20
188.91588794783539
 30
0.0
 42
0.414239433653062
  0
VERTEX
  5
1BF6
  8
0
 10
208.13486362708639
 20
192.8528958064571
 30
0.0
  0
VERTEX
  5
1BF7
  8
0
 10
208.13486362708639
 20
203.01000390254291
 30
0.0
 42
0.4142135623730951
  0
VERTEX
  5
1BF8
  8
0
 10
204.1978557530833
 20
206.9470117765604
 30
0.0
  0
VERTEX
  5
1BF9
  8
0
 10
202.5836825247402
 20
206.9470117765604
 30
0.0
 42
0.4142135623730951
  0
VERTEX
  5
1BFA
  8
0
 10
198.64667465073711
 20
203.01000390254291
 30
0.0
  0
VERTEX
  5
1BFB
  8
0
 10
198.64667465073711
 20
192.85303838519121
 30
0.0
 42
0.4141876915664024
  0
SEQEND
  5
1BFC
  8
0
  0
LINE
  5
169A
  8
0
 10
198.56793449325909
 20
218.4095722104025
 30
0.0
 11
198.56793449325909
 21
218.4568163048894
 31
0.0
  0
POLYLINE
  5
169B
  8
截面层
 62
     1
 66
     1
 10
0.0
 20
0.0
 30
0.0
 70
     1
  0
VERTEX
  5
1BFD
  8
截面层
 62
     1
 10
208.1701339545848
 20
161.60023225614071
 30
0.0
  0
VERTEX
  5
1BFE
  8
截面层
 62
     1
 10
208.1701339545848
 20
171.75771257106771
 30
0.0
 42
0.4142135623730951
  0
VERTEX
  5
1BFF
  8
截面层
 62
     1
 10
205.21737804908611
 20
174.7104684765809
 30
0.0
  0
VERTEX
  5
1C00
  8
截面层
 62
     1
 10
203.52446466326501
 20
174.7104684765809
 30
0.0
 42
0.4142135623730951
  0
VERTEX
  5
1C01
  8
截面层
 62
     1
 10
200.5717087577664
 20
171.75771257106771
 30
0.0
  0
VERTEX
  5
1C02
  8
截面层
 62
     1
 10
200.5717087577664
 20
161.60023225614071
 30
0.0
 42
0.4142135623730951
  0
VERTEX
  5
1C03
  8
截面层
 62
     1
 10
203.52446466326501
 20
158.64747635065669
 30
0.0
  0
VERTEX
  5
1C04
  8
截面层
 62
     1
 10
205.21737804908611
 20
158.64747635065669
 30
0.0
 42
0.4142135623730951
  0
SEQEND
  5
1C05
  8
截面层
 62
     1
  0
POLYLINE
  5
169C
  8
虚线
 62
     3
 66
     1
 10
0.0
 20
0.0
 30
0.0
 70
     1
  0
VERTEX
  5
1C06
  8
虚线
 62
     3
 10
208.4201339545848
 20
161.60023225614071
 30
0.0
  0
VERTEX
  5
1C07
  8
虚线
 62
     3
 10
208.4201339545848
 20
171.75771257106771
 30
0.0
 42
0.4142135623731372
  0
VERTEX
  5
1C08
  8
虚线
 62
     3
 10
205.21737804908611
 20
174.9604684765809
 30
0.0
  0
VERTEX
  5
1C09
  8
虚线
 62
     3
 10
203.52446466326501
 20
174.9604684765809
 30
0.0
 42
0.4142135623731372
  0
VERTEX
  5
1C0A
  8
虚线
 62
     3
 10
200.3217087577664
 20
171.75771257106771
 30
0.0
  0
VERTEX
  5
1C0B
  8
虚线
 62
     3
 10
200.3217087577664
 20
161.60023225614071
 30
0.0
 42
0.4142135623731372
  0
VERTEX
  5
1C0C
  8
虚线
 62
     3
 10
203.52446466326501
 20
158.39747635065669
 30
0.0
  0
VERTEX
  5
1C0D
  8
虚线
 62
     3
 10
205.21737804908611
 20
158.39747635065669
 30
0.0
 42
0.4142135623731372
  0
SEQEND
  5
1C0E
  8
虚线
 62
     3
  0
POLYLINE
  5
169D
  8
虚线
 62
    11
 66
     1
 10
0.0
 20
0.0
 30
0.0
 70
     1
  0
VERTEX
  5
1C0F
  8
虚线
 62
    11
 10
207.41574173743359
 20
62.287290985533218
 30
0.0
  0
VERTEX
  5
1C10
  8
虚线
 62
    11
 10
207.41574173743359
 20
72.444771300460161
 30
0.0
 42
0.4142135623730453
  0
VERTEX
  5
1C11
  8
虚线
 62
    11
 10
204.7129858319349
 20
75.147527205973333
 30
0.0
  0
VERTEX
  5
1C12
  8
虚线
 62
    11
 10
203.0200724461138
 20
75.147527205973333
 30
0.0
 42
0.4142135623730453
  0
VERTEX
  5
1C13
  8
虚线
 62
    11
 10
200.31731654061511
 20
72.444771300460161
 30
0.0
  0
VERTEX
  5
1C14
  8
虚线
 62
    11
 10
200.31731654061511
 20
62.287290985533218
 30
0.0
 42
0.4142135623730453
  0
VERTEX
  5
1C15
  8
虚线
 62
    11
 10
203.0200724461138
 20
59.58453508004915
 30
0.0
  0
VERTEX
  5
1C16
  8
虚线
 62
    11
 10
204.7129858319349
 20
59.58453508004915
 30
0.0
 42
0.4142135623730453
  0
SEQEND
  5
1C17
  8
虚线
 62
    11
  0
POLYLINE
  5
16A3
  8
0
 66
     1
 10
0.0
 20
0.0
 30
0.0
 70
     1
  0
VERTEX
  5
1C1E
  8
0
 10
203.56348698899231
 20
157.66355308567381
 30
0.0
  0
VERTEX
  5
1C1F
  8
0
 10
205.17766021732081
 20
157.6634105069397
 30
0.0
 42
0.414239433653062
  0
VERTEX
  5
1C20
  8
0
 10
209.1150158443356
 20
161.60041836556141
 30
0.0
  0
VERTEX
  5
1C21
  8
0
 10
209.1150158443356
 20
171.7575264616471
 30
0.0
 42
0.4142135623730951
  0
VERTEX
  5
1C22
  8
0
 10
205.17800797034721
 20
175.69453433566471
 30
0.0
  0
VERTEX
  5
1C23
  8
0
 10
203.56383474200399
 20
175.69453433566471
 30
0.0
 42
0.4142135623730951
  0
VERTEX
  5
1C24
  8
0
 10
199.62682686800099
 20
171.7575264616471
 30
0.0
  0
VERTEX
  5
1C25
  8
0
 10
199.62682686800099
 20
161.6005609443246
 30
0.0
 42
0.4141876915664024
  0
SEQEND
  5
1C26
  8
0
  0
INSERT
  5
16A4
  8
标注
  2
*U169
 10
0.0
 20
0.0
 30
0.0
  0
INSERT
  5
16A5
  8
标注
  2
*U170
 10
0.0
 20
0.0
 30
0.0
  0
DIMENSION
  5
16A6
  8
标注
  2
*D153
 10
207.14273764283419
 20
187.1620819750155
 30
0.0
 11
203.38289512316399
 21
187.1620819750155
 31
0.0
 13
199.6230526034937
 23
192.85252358762321
 33
0.0
 14
207.14273764283419
 24
192.85252358762321
 34
0.0
  0
DIMENSION
  5
16C0
  8
标注
  2
*D155
 10
208.13486362708639
 20
185.433623348943
 30
0.0
 11
203.39076913891171
 21
185.433623348943
 31
0.0
 13
198.64667465073711
 23
192.85303838519121
 33
0.0
 14
208.13486362708639
 24
192.85303838519121
 34
0.0
  0
DIMENSION
  5
16DA
  8
标注
  2
*D157
 10
209.47408306557011
 20
205.96275980805601
 30
0.0
 11
209.47408306557
 21
197.93126374509399
 31
0.0
 13
203.38289512316399
 23
189.8997676821318
 33
0.0
 14
203.39076913890449
 24
205.96275980805601
 34
0.0
 50
90.0
  0
DIMENSION
  5
16F4
  8
标注
  2
*D159
 10
211.25782054905989
 20
206.9470117765604
 30
0.0
 11
211.25782054905989
 21
197.93144986219801
 31
0.0
 13
204.19750800005701
 23
188.91588794783539
 33
0.0
 14
204.19750800005701
 24
206.9470117765604
 34
0.0
 50
90.0
  0
LINE
  5
170E
  8
虚线
 62
     3
 10
196.94690302113591
 20
147.6297919917059
 30
0.0
 11
203.1637080252199
 21
147.6297919917059
 31
0.0
  0
LINE
  5
170F
  8
截面层
 62
     1
 10
196.94690302113591
 20
145.66128805469799
 30
0.0
 11
203.1637080252199
 21
145.66128805469799
 31
0.0
  0
LINE
  5
1710
  8
虚线
 62
    11
 10
196.9296927668521
 20
54.89832563015792
 30
0.0
 11
203.14649777093609
 21
54.89832563015792
 31
0.0
  0
INSERT
  5
1711
  8
标注
  2
*U171
 10
0.0
 20
0.0
 30
0.0
  0
INSERT
  5
1712
  8
标注
  2
*U172
 10
0.0
 20
0.0
 30
0.0
  0
INSERT
  5
1713
  8
标注
  2
*U173
 10
0.0
 20
0.0
 30
0.0
  0
POLYLINE
  5
1714
  8
虚线
 62
     3
 66
     1
 10
0.0
 20
0.0
 30
0.0
 70
     1
  0
VERTEX
  5
1C4D
  8
虚线
 62
     3
 10
208.08040571098761
 20
123.6289310510255
 30
0.0
  0
VERTEX
  5
1C4E
  8
虚线
 62
     3
 10
208.08040571098761
 20
133.78641136595249
 30
0.0
 42
0.4142135623731372
  0
VERTEX
  5
1C4F
  8
虚线
 62
     3
 10
204.877649805489
 20
136.9891672714657
 30
0.0
  0
VERTEX
  5
1C50
  8
虚线
 62
     3
 10
203.1847364196677
 20
136.9891672714657
 30
0.0
 42
0.4142135623731372
  0
VERTEX
  5
1C51
  8
虚线
 62
     3
 10
199.98198051416921
 20
133.78641136595249
 30
0.0
  0
VERTEX
  5
1C52
  8
虚线
 62
     3
 10
199.98198051416921
 20
123.6289310510255
 30
0.0
 42
0.4142135623731372
  0
VERTEX
  5
1C53
  8
虚线
 62
     3
 10
203.1847364196677
 20
120.42617514554151
 30
0.0
  0
VERTEX
  5
1C54
  8
虚线
 62
     3
 10
204.877649805489
 20
120.42617514554151
 30
0.0
 42
0.4142135623731372
  0
SEQEND
  5
1C55
  8
虚线
 62
     3
  0
LINE
  5
1715
  8
虚线
 62
     3
 10
196.30919681364929
 20
115.76433226066619
 30
0.0
 11
202.5260018177332
 21
115.76433226066619
 31
0.0
  0
INSERT
  5
1716
  8
标注
  2
*U174
 10
0.0
 20
0.0
 30
0.0
  0
POLYLINE
  5
1717
  8
截面层
 62
     1
 66
     1
 10
0.0
 20
0.0
 30
0.0
 70
     1
  0
VERTEX
  5
1C5B
  8
截面层
 62
     1
 10
208.0832284162712
 20
94.561671792624225
 30
0.0
  0
VERTEX
  5
1C5C
  8
截面层
 62
     1
 10
208.0832284162712
 20
104.7191521075511
 30
0.0
 42
0.4142135623730951
  0
VERTEX
  5
1C5D
  8
截面层
 62
     1
 10
205.13047251077251
 20
107.6719080130642
 30
0.0
  0
VERTEX
  5
1C5E
  8
截面层
 62
     1
 10
203.43755912495141
 20
107.6719080130642
 30
0.0
 42
0.4142135623730951
  0
VERTEX
  5
1C5F
  8
截面层
 62
     1
 10
200.48480321945269
 20
104.7191521075511
 30
0.0
  0
VERTEX
  5
1C60
  8
截面层
 62
     1
 10
200.48480321945269
 20
94.561671792624225
 30
0.0
 42
0.4142135623730951
  0
VERTEX
  5
1C61
  8
截面层
 62
     1
 10
203.43755912495141
 20
91.608915887140128
 30
0.0
  0
VERTEX
  5
1C62
  8
截面层
 62
     1
 10
205.13047251077251
 20
91.608915887140128
 30
0.0
 42
0.4142135623730951
  0
SEQEND
  5
1C63
  8
截面层
 62
     1
  0
LINE
  5
1718
  8
截面层
 62
     1
 10
196.74624298073161
 20
85.899701786122449
 30
0.0
 11
202.9630479848156
 21
85.899701786122449
 31
0.0
  0
INSERT
  5
1719
  8
标注
  2
*U175
 10
0.0
 20
0.0
 30
0.0
  0
POLYLINE
  5
1F21
  8
虚线
 62
    11
 66
     1
 10
0.0
 20
0.0
 30
0.0
 70
     1
  0
VERTEX
  5
1F22
  8
虚线
 62
    11
 10
207.9201339545848
 20
161.60023225614071
 30
0.0
  0
VERTEX
  5
1F23
  8
虚线
 62
    11
 10
207.9201339545848
 20
171.75771257106771
 30
0.0
 42
0.4142135623730453
  0
VERTEX
  5
1F24
  8
虚线
 62
    11
 10
205.21737804908611
 20
174.4604684765809
 30
0.0
  0
VERTEX
  5
1F25
  8
虚线
 62
    11
 10
203.52446466326509
 20
174.4604684765809
 30
0.0
 42
0.4142135623730453
  0
VERTEX
  5
1F26
  8
虚线
 62
    11
 10
200.82170875776629
 20
171.75771257106771
 30
0.0
  0
VERTEX
  5
1F27
  8
虚线
 62
    11
 10
200.82170875776629
 20
161.60023225614071
 30
0.0
 42
0.4142135623730453
  0
VERTEX
  5
1F28
  8
虚线
 62
    11
 10
203.52446466326509
 20
158.89747635065669
 30
0.0
  0
VERTEX
  5
1F29
  8
虚线
 62
    11
 10
205.21737804908611
 20
158.89747635065669
 30
0.0
 42
0.4142135623730453
  0
SEQEND
  5
1F2A
  8
虚线
 62
    11
  0
DIMENSION
  5
229A
  8
标注
  2
*D211
 10
209.6977474667724
 20
218.4568163048894
 30
0.0
 11
209.6977474667724
 21
215.79933598993341
 31
0.0
 70
     0
 13
205.6089147196457
 23
213.14185567497719
 33
0.0
 14
208.13486362708639
 24
218.4568163048894
 34
0.0
 50
90.0
1001
ACAD
1000
DSTYLE
1002
{
1070
   287
1070
     3
1070
   287
1070
     3
1070
   287
1070
     3
1070
     3
1000
"
1070
   271
1070
     4
1070
   272
1070
     4
1070
   274
1070
     2
1070
   279
1070
     0
1070
   284
1070
     0
1070
   285
1070
     0
1070
   286
1070
     0
1002
}
  0
LINE
  5
22BE
  8
虚线
 62
    11
 10
196.9296927668521
 20
143.2485120245465
 30
0.0
 11
203.14649777093609
 21
143.2485120245465
 31
0.0
  0
INSERT
  5
22BF
  8
标注
  2
*U173
 10
0.0
 20
88.350186394388757
 30
0.0
  0
INSERT
  5
2D4F
  8
0
  2
*U165
 10
0.9801522172638215
 20
-31.252477440895721
 30
0.0
  0
INSERT
  5
2D50
  8
0
  2
*U166
 10
0.9801522172638215
 20
-31.252477440895721
 30
0.0
  0
INSERT
  5
2D51
  8
0
  2
*U167
 10
0.9801522172638215
 20
-31.252477440895721
 30
0.0
  0
INSERT
  5
2D52
  8
0
  2
*U168
 10
0.9801522172638215
 20
-31.252477440895721
 30
0.0
  0
ENDSEC
  0
EOF
